福利发放鸡
论坛版主
论坛版主
  • 注册日期2017-03-24
  • 发帖数462
  • 影币6330枚
  • 魔力值1304点
  • 蓝光币2克拉
  • 社区居民
  • 忠实会员
  • 喜欢达人
  • 原创写手
阅读:884回复:13

[其他]2019电视剧品质盛典.20190309.1080i.DRAGON.HDTV.H.264.DD5.1-FLTTH.ts 7.05G

楼主#
更多 发布于:2019-03-12 16:33

图片:SS_00003.jpg

图片:SS_00004.jpg

图片:SS_00005.jpg

图片:SS_00006.jpg

图片:SS_00007.jpg

图片:SS_00008.jpg



General
ID                                       : 1 (0x1)
Complete name                            : 2019电视剧品质盛典.20190309.1080i.DRAGON.HDTV.H.264.DD5.1-FLTTH.ts
Format                                   : MPEG-TS
File size                                : 7.05 GiB
Duration                                 : 2 h 17 min
Overall bit rate mode                    : Variable
Overall bit rate                         : 7 319 kb/s
 
Video
ID                                       : 256 (0x100)
Menu ID                                  : 1 (0x1)
Format                                   : AVC
Format/Info                              : Advanced Video Codec
Format profile                           : High@L4
Format settings                          : CABAC / 2 Ref Frames
Format settings, CABAC                   : Yes
Format settings, RefFrames               : 2 frames
Format settings, GOP                     : M=3, N=12
Codec ID                                 : 27
Duration                                 : 2 h 17 min
Bit rate                                 : 6 311 kb/s
Width                                    : 1 920 pixels
Height                                   : 1 080 pixels
Display aspect ratio                     : 16:9
Frame rate                               : 25.000 FPS
Color space                              : YUV
Chroma subsampling                       : 4:2:0
Bit depth                                : 8 bits
Scan type                                : Interlaced
Scan type, store method                  : Separated fields
Scan order                               : Top Field First
Bits/(Pixel*Frame)                       : 0.122
Stream size                              : 6.08 GiB (86%)
 
Audio
ID                                       : 257 (0x101)
Menu ID                                  : 1 (0x1)
Format                                   : AC-3
Format/Info                              : Audio Coding 3
Commercial name                          : Dolby Digital
Codec ID                                 : 129
Duration                                 : 2 h 17 min
Bit rate mode                            : Constant
Bit rate                                 : 640 kb/s
Channel(s)                               : 6 channels
Channel layout                           : L R C LFE Ls Rs
Sampling rate                            : 48.0 kHz
Frame rate                               : 31.250 FPS (1536 SPF)
Bit depth                                : 16 bits
Compression mode                         : Lossy
Delay relative to video                  : -280 ms
Stream size                              : 631 MiB (9%)
Service kind                             : Complete Main
节目简介:

    由百岁山独家冠名,SMG影视剧中心与东方卫视共同制作的2019电视剧品质盛典于3月9日19点30在东方卫视盛大播出。水中贵族百岁山今年继续为这场演艺盛事倾情助力,展现对品质的不懈追求。
    这场每年春天中国电视剧业界重要的盛会,集中表彰了一批在过去一年拥有优质表现的电视剧,并迎来近百位在2018年荧屏有过出色发挥、2019年即将有新作亮相的演员登场,众多嘉宾齐聚上海,与大家分享他们的欢笑、泪水和成绩,摘下一颗颗属于他们的品质硕果。百岁山连续三年冠名电视剧品质盛典,为盛典现场提供优质天然矿泉水,也为盛典增加优雅沉稳的品牌气质。



下载地址:
https://pan.baidu.com/s/1bcptAn4gsRlgYfqBTcePrA 提取码:myt1

最新喜欢:

KrystalKrysta... zyyzwyfzyyzwy... 5833247583324...
liguochuan
精灵王
精灵王
  • 注册日期2015-10-03
  • 发帖数834
  • 影币3255枚
  • 魔力值1987点
  • 蓝光币44克拉
  • 社区居民
  • 忠实会员
沙发#
发布于:2019-03-12 18:31
不错的资源
冷月梦寒
精灵王
精灵王
  • 注册日期2017-12-18
  • 发帖数1028
  • 影币2635枚
  • 魔力值809点
  • 蓝光币162克拉
  • 社区居民
  • 最爱沙发
  • 忠实会员
板凳#
发布于:2019-03-12 21:12
谢谢楼主分享
龙飞飞龙
骑士
骑士
  • 注册日期2019-01-14
  • 发帖数308
  • 影币299枚
  • 魔力值105点
  • 蓝光币157克拉
地板#
发布于:2019-03-13 08:49
不错的资源
龙飞飞龙
骑士
骑士
  • 注册日期2019-01-14
  • 发帖数308
  • 影币299枚
  • 魔力值105点
  • 蓝光币157克拉
4楼#
发布于:2019-03-13 08:50
不错的资源
某些人
精灵王
精灵王
  • 注册日期2016-12-31
  • 发帖数289
  • 影币306枚
  • 魔力值1289点
  • 蓝光币13克拉
  • 社区居民
  • 忠实会员
5楼#
发布于:2019-03-13 10:04
多谢分享。
zyyzwyf
精灵王
精灵王
  • 注册日期2017-05-17
  • 发帖数1471
  • 影币2127枚
  • 魔力值600点
  • 蓝光币767克拉
  • 社区居民
  • 忠实会员
6楼#
发布于:2019-03-13 22:47
感谢达人分享好资源。
龙飞飞龙
骑士
骑士
  • 注册日期2019-01-14
  • 发帖数308
  • 影币299枚
  • 魔力值105点
  • 蓝光币157克拉
7楼#
发布于:2019-03-14 08:04
不错的资源
ttyyuuii0011
新手
新手
  • 注册日期2017-11-02
  • 发帖数30
  • 影币17枚
  • 魔力值35点
  • 蓝光币2克拉
  • 社区居民
8楼#
发布于:2019-03-14 15:43
感谢分享好资源。
龙飞飞龙
骑士
骑士
  • 注册日期2019-01-14
  • 发帖数308
  • 影币299枚
  • 魔力值105点
  • 蓝光币157克拉
9楼#
发布于:2019-03-15 07:48
谢谢楼主分享
Krystal
新手
新手
  • 注册日期2015-12-18
  • 发帖数15
  • 影币26枚
  • 魔力值78点
  • 蓝光币1克拉
  • 社区居民
10楼#
发布于:2019-03-15 14:27
多谢制作组
氧化火龙果
侠客
侠客
  • 注册日期2016-08-07
  • 发帖数12
  • 影币92枚
  • 魔力值124点
  • 蓝光币1克拉
  • 社区居民
  • 忠实会员
11楼#
发布于:2019-03-15 14:33
多谢分享!当时追了直播,一直在等下载,谢谢了
龙飞飞龙
骑士
骑士
  • 注册日期2019-01-14
  • 发帖数308
  • 影币299枚
  • 魔力值105点
  • 蓝光币157克拉
12楼#
发布于:2019-03-17 18:35
不错的资源
quake2009
圣骑士
圣骑士
  • 注册日期2017-01-07
  • 发帖数489
  • 影币106枚
  • 魔力值389点
  • 蓝光币38克拉
  • 社区居民
13楼#
发布于:2019-03-22 08:01
谢谢分享
游客
返回顶部