gananicus
管理员
管理员
  • 注册日期2015-07-28
  • 发帖数1281
  • 影币41790枚
  • 魔力值1590点
  • 蓝光币1克拉
  • 社区居民
阅读:3151回复:39

[科幻]最后一人 The Last Man 2018.BluRay.1080p.HEVC.DTS-HDMA.5.1-DDR 6.86 GiB

楼主#
更多 发布于:2019-03-09 22:45


◎译  名 最后一人
◎片  名 Numb, at the Edge of the End / The Last Man: On the Face of the Earth
◎年  代 2018
◎国  家 阿根廷 / 加拿大
◎类  别 动作/剧情/科幻
◎语  言 英语
◎IMDb评分 5.0/10 from 154 users
◎IMDB链接 http://www.imdb.com/title/tt3312180
◎片  长 1 h 44 min
◎导  演 罗德里格·H·维拉 Rodrigo H. Vila
◎主  演 海登·克里斯滕森 Hayden Christensen
   哈威·凯特尔 Harvey Keitel
   马克·莱昂纳蒂 Marco Leonardi
   Justin Kelly
   Fernán Mirás

◎简  介

 海登·克里斯滕森、哈威·凯特尔加盟惊悚片《麻木,在尽头边缘》(Numb, At The Edge of the End,暂译),阿根廷导演罗德里格·H·维拉自追高清编自导。克里斯滕森饰患有创伤后应激障碍的老兵、认为世界末日将来临,与神秘人(凯特尔饰)的接触更加剧了他的疯狂之举。此时一个出乎众人意料的事件发生了。

  1. Video
  2. ID : 1
  3. Format : AVC
  4. Format/Info : Advanced Video Codec
  5. Format profile : High@L4.1
  6. Format settings : CABAC / 4 Ref Frames
  7. Format settings, CABAC : Yes
  8. Format settings, ReFrames : 4 frames
  9. Codec ID : V_MPEG4/ISO/AVC
  10. Duration : 1 h 44 min
  11. Bit rate : 11.5 Mb/s
  12. Width : 1 920 pixels
  13. Height : 804 pixels
  14. Display aspect ratio : 2.40:1
  15. Frame rate mode : Constant
  16. Frame rate : 23.976 (24000/1001) FPS
  17. Color space : YUV
  18. Chroma subsampling : 4:2:0
  19. Bit depth : 8 bits
  20. Scan type : Progressive
  21. Bits/(Pixel*Frame) : 0.311
  22. Stream size : 8.33 GiB (74%)
  23. Title : The.Last.Man.2018.1080p.BluRay.x264.DTS-HD.MA.5.1-FGT
  24. Writing library : x264 core 148 r2748 97eaef2
  25. Encoding settings : cabac=1 / ref=4 / deblock=1:-2:-2 / analyse=0x3:0x113 / me=umh / subme=9 / psy=1 / psy_rd=1.00:0.15 / mixed_ref=1 / me_range=16 / chroma_me=1 / trellis=2 / 8x8dct=1 / cqm=0 / deadzone=21,11 / fast_pskip=1 / chroma_qp_offset=-3 / threads=24 / lookahead_threads=3 / sliced_threads=0 / nr=0 / decimate=1 / interlaced=0 / bluray_compat=0 / constrained_intra=0 / bframes=3 / b_pyramid=2 / b_adapt=1 / b_bias=0 / direct=3 / weightb=1 / open_gop=0 / weightp=2 / keyint=250 / keyint_min=25 / scenecut=40 / intra_refresh=0 / rc_lookahead=50 / rc=2pass / mbtree=1 / bitrate=11500 / ratetol=1.0 / qcomp=0.60 / qpmin=0 / qpmax=69 / qpstep=4 / cplxblur=20.0 / qblur=0.5 / vbv_maxrate=31250 / vbv_bufsize=31250 / nal_hrd=none / filler=0 / ip_ratio=1.40 / aq=1:1.00
  26. Language : English
  27. Default : Yes
  28. Forced : No

  29. Audio
  30. ID : 2
  31. Format : DTS XLL
  32. Format/Info : Digital Theater Systems
  33. Commercial name : DTS-HD Master Audio
  34. Codec ID : A_DTS
  35. Duration : 1 h 44 min
  36. Bit rate mode : Variable
  37. Bit rate : 3 896 kb/s
  38. Channel(s) : 6 channels
  39. Channel layout : C L R Ls Rs LFE
  40. Sampling rate : 48.0 kHz
  41. Frame rate : 93.750 FPS (512 SPF)
  42. Bit depth : 24 bits
  43. Compression mode : Lossless
  44. Stream size : 2.84 GiB (25%)
  45. Title : The.Last.Man.2018.1080p.BluRay.x264.DTS-HD.MA.5.1-FGT
  46. Language : English
  47. Default : Yes
  48. Forced : No

  49. Text #1
  50. ID : 3
  51. Format : UTF-8
  52. Codec ID : S_TEXT/UTF8
  53. Codec ID/Info : UTF-8 Plain Text
  54. Duration : 1 h 39 min
  55. Bit rate : 55 b/s
  56. Count of elements : 1327
  57. Stream size : 40.7 KiB (0%)
  58. Title : English-SRT
  59. Language : English
  60. Default : Yes
  61. Forced : No

  62. Text #2
  63. ID : 4
  64. Format : UTF-8
  65. Codec ID : S_TEXT/UTF8
  66. Codec ID/Info : UTF-8 Plain Text
  67. Duration : 1 h 41 min
  68. Bit rate : 60 b/s
  69. Count of elements : 1500
  70. Stream size : 45.3 KiB (0%)
  71. Title : English-SDH-SRT
  72. Language : English
  73. Default : No
  74. Forced : No

  75. Text #3
  76. ID : 5
  77. Format : PGS
  78. Muxing mode : zlib
  79. Codec ID : S_HDMV/PGS
  80. Codec ID/Info : Picture based subtitle format used on BDs/HD-DVDs
  81. Duration : 1 h 41 min
  82. Bit rate : 43.4 kb/s
  83. Count of elements : 3008
  84. Stream size : 31.5 MiB (0%)
  85. Title : English-PGS
  86. Language : English
  87. Default : No
  88. Forced : No

  89. Text #4
  90. ID : 6
  91. Format : PGS
  92. Muxing mode : zlib
  93. Codec ID : S_HDMV/PGS
  94. Codec ID/Info : Picture based subtitle format used on BDs/HD-DVDs
  95. Duration : 1 h 39 min
  96. Bit rate : 37.4 kb/s
  97. Count of elements : 2530
  98. Stream size : 26.5 MiB (0%)
  99. Title : Spanish-PGS
  100. Language : Spanish
  101. Default : No
  102. Forced : No

  103. Menu
  104. 00:00:00.000 : en:Chapter 01
  105. 00:05:00.925 : en:Chapter 02
  106. 00:13:15.336 : en:Chapter 03
  107. 00:20:07.748 : en:Chapter 04
  108. 00:26:32.632 : en:Chapter 05
  109. 00:33:28.131 : en:Chapter 06
  110. 00:39:14.727 : en:Chapter 07
  111. 00:45:35.107 : en:Chapter 08
  112. 00:51:52.526 : en:Chapter 09
  113. 01:00:29.792 : en:Chapter 10
  114. 01:06:24.313 : en:Chapter 11
  115. 01:11:18.482 : en:Chapter 12
  116. 01:20:27.614 : en:Chapter 13
  117. 01:28:50.408 : en:Chapter 14
  118. 01:34:07.642 : en:Chapter 15
  119. 01:39:53.404 : en:Chapter 16
复制代码





附件名称/大小 下载次数 最后更新
The.Last.Man.2018.1080p.BluRay.x264.DTS-HD.MA.5.1-FGT.torrent (57KB)  148 03-09 22:43

最新喜欢:

zyyzwyfzyyzwy... szyswyszyswy
冷月梦寒
精灵王
精灵王
  • 注册日期2017-12-18
  • 发帖数1260
  • 影币3117枚
  • 魔力值913点
  • 蓝光币161克拉
  • 社区居民
  • 最爱沙发
  • 忠实会员
沙发#
发布于:2019-03-09 23:34
谢谢楼主分享
抽象大师
圣骑士
圣骑士
  • 注册日期2018-01-27
  • 发帖数211
  • 影币20枚
  • 魔力值696点
  • 蓝光币29克拉
  • 社区居民
  • 忠实会员
板凳#
发布于:2019-03-10 00:46
最后一人
douglas
精灵王
精灵王
  • 注册日期2015-08-06
  • 发帖数983
  • 影币0枚
  • 魔力值1297点
  • 蓝光币0克拉
  • 忠实会员
地板#
发布于:2019-03-10 11:23
感謝分享~
douglas
精灵王
精灵王
  • 注册日期2015-08-06
  • 发帖数983
  • 影币0枚
  • 魔力值1297点
  • 蓝光币0克拉
  • 忠实会员
4楼#
发布于:2019-03-10 11:23
多謝分享~
wxl11141
新手
新手
  • 注册日期2019-01-26
  • 发帖数13
  • 影币0枚
  • 魔力值62点
  • 蓝光币2克拉
5楼#
发布于:2019-03-10 12:11
感谢分享
king3189
侠客
侠客
  • 注册日期2017-02-07
  • 发帖数58
  • 影币15枚
  • 魔力值166点
  • 蓝光币1克拉
6楼#
发布于:2019-03-10 13:22
谢谢楼主分享!
lihonghe
侠客
侠客
  • 注册日期2017-08-27
  • 发帖数55
  • 影币7枚
  • 魔力值159点
  • 蓝光币3克拉
7楼#
发布于:2019-03-10 14:59
谢谢楼主分享!
zuozuo
精灵王
精灵王
  • 注册日期2015-09-21
  • 发帖数866
  • 影币770枚
  • 魔力值1702点
  • 蓝光币231克拉
  • 社区居民
  • 忠实会员
8楼#
发布于:2019-03-10 20:06
111
liguochuan
精灵王
精灵王
  • 注册日期2015-10-03
  • 发帖数890
  • 影币3456枚
  • 魔力值2083点
  • 蓝光币49克拉
  • 社区居民
  • 忠实会员
9楼#
发布于:2019-03-10 20:32
不错的片子
weast
精灵王
精灵王
  • 注册日期2015-10-05
  • 发帖数123
  • 影币0枚
  • 魔力值1056点
  • 蓝光币4克拉
10楼#
发布于:2019-03-10 21:05
好片啊
weast
精灵王
精灵王
  • 注册日期2015-10-05
  • 发帖数123
  • 影币0枚
  • 魔力值1056点
  • 蓝光币4克拉
11楼#
发布于:2019-03-10 21:06
太好了
ynhqlyhy
侠客
侠客
  • 注册日期2019-02-20
  • 发帖数120
  • 影币115枚
  • 魔力值92点
  • 蓝光币64克拉
12楼#
发布于:2019-03-11 08:45
感谢分享支持下
拾光映画
侠客
侠客
  • 注册日期2018-05-13
  • 发帖数56
  • 影币39枚
  • 魔力值102点
  • 蓝光币19克拉
  • 社区居民
  • 忠实会员
13楼#
发布于:2019-03-11 10:30
不错的片子
ynhqlyhy
侠客
侠客
  • 注册日期2019-02-20
  • 发帖数120
  • 影币115枚
  • 魔力值92点
  • 蓝光币64克拉
14楼#
发布于:2019-03-12 09:07
谢谢分享 有字幕 吗
上一页
游客
返回顶部