gananicus
管理员
管理员
  • 注册日期2015-07-28
  • 发帖数1281
  • 影币40711枚
  • 魔力值1590点
  • 蓝光币1克拉
  • 社区居民
阅读:4074回复:87

[动作]硬核风暴【中字】The.Hard.Way.2019.1080p.NF.WEBRip.DD5.1.x264-CM 4.4GB

楼主#
更多 发布于:2019-03-05 22:25

图片:7e7111a18862a1ffae5ee05cc77fa398.jpg









◎译  名 硬核风暴


◎片  名 The Hard Way


◎年  代 2019


◎产  地 美国


◎类  别 动作 / 犯罪


◎语  言 英语


◎上映日期 2019-03-20(美国)


◎IMDb链接 http://www.imdb.com/title/tt9815714


◎片  长 92分钟


◎导  演 基翁尼·韦克斯曼 Keoni Waxman


◎编  剧 托马斯·丘吉尔 Thomas J. Churchill / 基翁尼·韦克斯曼 Keoni Waxman


◎主  演 迈克尔·加·怀特 Michael Jai White


鲁克·高斯 Luke Goss


兰迪·库卓 Randy Couture










◎简  介  






暂无相关剧情介绍










Video
ID : 1
Format : AVC
Format/Info : Advanced Video Codec
Format profile : High@L4
Format settings : CABAC / 4 Ref Frames
Format settings, CABAC : Yes
Format settings, ReFrames : 4 frames
Codec ID : V_MPEG4/ISO/AVC
Duration : 1 h 33 min
Bit rate mode : Variable
Bit rate : 6 326 kb/s
Maximum bit rate : 20.0 Mb/s
Width : 1 920 pixels
Height : 1 080 pixels
Display aspect ratio : 16:9
Frame rate mode : Constant
Frame rate : 23.976 (24000/1001) FPS
Color space : YUV
Chroma subsampling : 4:2:0
Bit depth : 8 bits
Scan type : Progressive
Bits/(Pixel*Frame) : 0.127
Stream size : 4.14 GiB (94%)
Writing library : x264 core 148 r2715 7e75228
Encoding settings : cabac=1 / ref=4 / deblock=1:0:0 / analyse=0x3:0x111 / me=umh / subme=10 / psy=1 / psy_rd=1.00:0.00 / mixed_ref=1 / me_range=120 / chroma_me=1 / trellis=2 / 8x8dct=1 / cqm=0 / deadzone=21,11 / fast_pskip=1 / chroma_qp_offset=-2 / threads=8 / lookahead_threads=2 / sliced_threads=0 / nr=0 / decimate=1 / interlaced=0 / bluray_compat=0 / stitchable=1 / constrained_intra=0 / bframes=16 / b_pyramid=2 / b_adapt=2 / b_bias=0 / direct=3 / weightb=1 / open_gop=0 / weightp=2 / keyint=240 / keyint_min=121 / scenecut=0 / intra_refresh=0 / rc_lookahead=240 / rc=crf / mbtree=1 / crf=16.0 / qcomp=0.50 / qpmin=6 / qpmax=51 / qpstep=4 / vbv_maxrate=20000 / vbv_bufsize=25000 / crf_max=0.0 / nal_hrd=vbr / filler=0 / ip_ratio=1.40 / aq=1:0.80
Default : Yes
Forced : No


Audio
ID : 2
Format : AC-3
Format/Info : Audio Coding 3
Commercial name : Dolby Digital
Codec ID : A_AC3
Duration : 1 h 34 min
Bit rate mode : Constant
Bit rate : 384 kb/s
Channel(s) : 6 channels
Channel layout : L R C LFE Ls Rs
Sampling rate : 48.0 kHz
Frame rate : 31.250 FPS (1536 SPF)
Bit depth : 16 bits
Compression mode : Lossy
Stream size : 259 MiB (6%)
Title : English
Language : English
Service kind : Complete Main
Default : Yes
Forced : No


Text #1
ID : 3
Format : UTF-8
Codec ID : S_TEXT/UTF8
Codec ID/Info : UTF-8 Plain Text
Duration : 32 min 35 s
Bit rate : 0 b/s
Count of elements : 2
Stream size : 37.0 Bytes (0%)
Title : English [Forced]
Language : English
Default : No
Forced : Yes


Text #2
ID : 4
Format : UTF-8
Codec ID : S_TEXT/UTF8
Codec ID/Info : UTF-8 Plain Text
Duration : 1 h 29 min
Bit rate : 52 b/s
Count of elements : 1144
Stream size : 34.7 KiB (0%)
Title : English [SDH]
Language : English
Default : No
Forced : No


Text #3
ID : 5
Format : UTF-8
Codec ID : S_TEXT/UTF8
Codec ID/Info : UTF-8 Plain Text
Duration : 1 h 29 min
Bit rate : 0 b/s
Count of elements : 5
Stream size : 109 Bytes (0%)
Title : Castilian [Forced]
Language : Spanish
Default : No
Forced : Yes


Text #4
ID : 6
Format : UTF-8
Codec ID : S_TEXT/UTF8
Codec ID/Info : UTF-8 Plain Text
Duration : 1 h 32 min
Bit rate : 41 b/s
Count of elements : 1002
Stream size : 28.5 KiB (0%)
Title : Castilian
Language : Spanish
Default : No
Forced : No


Text #5
ID : 7
Format : UTF-8
Codec ID : S_TEXT/UTF8
Codec ID/Info : UTF-8 Plain Text
Duration : 1 h 29 min
Bit rate : 0 b/s
Count of elements : 11
Stream size : 256 Bytes (0%)
Title : Spanish [Forced]
Language : Spanish
Default : No
Forced : Yes


Text #6
ID : 8
Format : UTF-8
Codec ID : S_TEXT/UTF8
Codec ID/Info : UTF-8 Plain Text
Duration : 1 h 32 min
Bit rate : 46 b/s
Count of elements : 1028
Stream size : 31.9 KiB (0%)
Title : Spanish
Language : Spanish
Default : No
Forced : No


Text #7
ID : 9
Format : UTF-8
Codec ID : S_TEXT/UTF8
Codec ID/Info : UTF-8 Plain Text
Duration : 1 h 29 min
Bit rate : 0 b/s
Count of elements : 7
Stream size : 189 Bytes (0%)
Title : French [Forced]
Language : French
Default : No
Forced : Yes


Text #8
ID : 10
Format : UTF-8
Codec ID : S_TEXT/UTF8
Codec ID/Info : UTF-8 Plain Text
Duration : 1 h 32 min
Bit rate : 38 b/s
Count of elements : 995
Stream size : 25.9 KiB (0%)
Title : French
Language : French
Default : No
Forced : No


Text #9
ID : 11
Format : UTF-8
Codec ID : S_TEXT/UTF8
Codec ID/Info : UTF-8 Plain Text
Duration : 1 h 32 min
Bit rate : 44 b/s
Count of elements : 1028
Stream size : 30.4 KiB (0%)
Title : German
Language : German
Default : No
Forced : No


Text #10
ID : 12
Format : UTF-8
Codec ID : S_TEXT/UTF8
Codec ID/Info : UTF-8 Plain Text
Duration : 1 h 29 min
Bit rate : 0 b/s
Count of elements : 12
Stream size : 261 Bytes (0%)
Title : Italian [Forced]
Language : Italian
Default : No
Forced : Yes


Text #11
ID : 13
Format : UTF-8
Codec ID : S_TEXT/UTF8
Codec ID/Info : UTF-8 Plain Text
Duration : 1 h 32 min
Bit rate : 47 b/s
Count of elements : 1023
Stream size : 32.0 KiB (0%)
Title : Italian
Language : Italian
Default : No
Forced : No


Text #12
ID : 14
Format : UTF-8
Codec ID : S_TEXT/UTF8
Codec ID/Info : UTF-8 Plain Text
Duration : 1 h 32 min
Bit rate : 46 b/s
Count of elements : 1021
Stream size : 31.6 KiB (0%)
Title : Portuguese
Language : Portuguese
Default : No
Forced : No


Text #13
ID : 15
Format : UTF-8
Codec ID : S_TEXT/UTF8
Codec ID/Info : UTF-8 Plain Text
Duration : 1 h 29 min
Bit rate : 0 b/s
Count of elements : 13
Stream size : 284 Bytes (0%)
Title : Brazilian Portuguese [Forced]
Language : Portuguese
Default : No
Forced : Yes


Text #14
ID : 16
Format : UTF-8
Codec ID : S_TEXT/UTF8
Codec ID/Info : UTF-8 Plain Text
Duration : 1 h 32 min
Bit rate : 42 b/s
Count of elements : 1019
Stream size : 29.2 KiB (0%)
Title : Brazilian Portuguese
Language : Portuguese
Default : No
Forced : No


Text #15
ID : 17
Format : UTF-8
Codec ID : S_TEXT/UTF8
Codec ID/Info : UTF-8 Plain Text
Duration : 56 min 17 s
Bit rate : 0 b/s
Count of elements : 2
Stream size : 47.0 Bytes (0%)
Title : Polish [Forced]
Language : Polish
Default : No
Forced : Yes


Text #16
ID : 18
Format : UTF-8
Codec ID : S_TEXT/UTF8
Codec ID/Info : UTF-8 Plain Text
Duration : 1 h 32 min
Bit rate : 40 b/s
Count of elements : 993
Stream size : 27.4 KiB (0%)
Title : Polish
Language : Polish
Default : No
Forced : No


Text #17
ID : 19
Format : UTF-8
Codec ID : S_TEXT/UTF8
Codec ID/Info : UTF-8 Plain Text
Duration : 1 h 29 min
Bit rate : 0 b/s
Count of elements : 12
Stream size : 240 Bytes (0%)
Title : Turkish [Forced]
Language : Turkish
Default : No
Forced : Yes


Text #18
ID : 20
Format : UTF-8
Codec ID : S_TEXT/UTF8
Codec ID/Info : UTF-8 Plain Text
Duration : 1 h 32 min
Bit rate : 45 b/s
Count of elements : 1032
Stream size : 30.6 KiB (0%)
Title : Turkish
Language : Turkish
Default : No
Forced : No


Text #19
ID : 21
Format : UTF-8
Codec ID : S_TEXT/UTF8
Codec ID/Info : UTF-8 Plain Text
Duration : 1 h 32 min
Bit rate : 43 b/s
Count of elements : 739
Stream size : 29.3 KiB (0%)
Title : Swedish
Language : Swedish
Default : No
Forced : No


Text #20
ID : 22
Format : UTF-8
Codec ID : S_TEXT/UTF8
Codec ID/Info : UTF-8 Plain Text
Duration : 1 h 32 min
Bit rate : 41 b/s
Count of elements : 732
Stream size : 28.0 KiB (0%)
Title : Danish
Language : Danish
Default : No
Forced : No


Text #21
ID : 23
Format : UTF-8
Codec ID : S_TEXT/UTF8
Codec ID/Info : UTF-8 Plain Text
Duration : 1 h 32 min
Bit rate : 40 b/s
Count of elements : 739
Stream size : 27.8 KiB (0%)
Title : Finnish
Language : Finnish
Default : No
Forced : No


Text #22
ID : 24
Format : UTF-8
Codec ID : S_TEXT/UTF8
Codec ID/Info : UTF-8 Plain Text
Duration : 1 h 32 min
Bit rate : 40 b/s
Count of elements : 759
Stream size : 27.2 KiB (0%)
Title : Dutch
Language : Dutch
Default : No
Forced : No


Text #23
ID : 25
Format : UTF-8
Codec ID : S_TEXT/UTF8
Codec ID/Info : UTF-8 Plain Text
Duration : 1 h 32 min
Bit rate : 40 b/s
Count of elements : 733
Stream size : 27.6 KiB (0%)
Title : Norwegian
Language : Norwegian
Default : No
Forced : No


Text #24
ID : 26
Format : UTF-8
Codec ID : S_TEXT/UTF8
Codec ID/Info : UTF-8 Plain Text
Duration : 1 h 32 min
Bit rate : 72 b/s
Count of elements : 1032
Stream size : 49.5 KiB (0%)
Title : Russian
Language : Russian
Default : No
Forced : No


Text #25
ID : 27
Format : UTF-8
Codec ID : S_TEXT/UTF8
Codec ID/Info : UTF-8 Plain Text
Duration : 1 h 32 min
Bit rate : 71 b/s
Count of elements : 1019
Stream size : 48.9 KiB (0%)
Title : Greek
Language : Greek
Default : No
Forced : No


Text #26
ID : 28
Format : UTF-8
Codec ID : S_TEXT/UTF8
Codec ID/Info : UTF-8 Plain Text
Duration : 1 h 32 min
Bit rate : 59 b/s
Count of elements : 1027
Stream size : 40.6 KiB (0%)
Title : Hebrew
Language : Hebrew
Default : No
Forced : No


Text #27
ID : 29
Format : UTF-8
Codec ID : S_TEXT/UTF8
Codec ID/Info : UTF-8 Plain Text
Duration : 1 h 32 min
Bit rate : 63 b/s
Count of elements : 1034
Stream size : 43.5 KiB (0%)
Title : Arabic
Language : Arabic
Default : No
Forced : No


Text #28
ID : 30
Format : UTF-8
Codec ID : S_TEXT/UTF8
Codec ID/Info : UTF-8 Plain Text
Duration : 1 h 32 min
Bit rate : 43 b/s
Count of elements : 1026
Stream size : 29.5 KiB (0%)
Title : Romanian
Language : Romanian
Default : No
Forced : No


Text #29
ID : 31
Format : UTF-8
Codec ID : S_TEXT/UTF8
Codec ID/Info : UTF-8 Plain Text
Duration : 1 h 32 min
Bit rate : 44 b/s
Count of elements : 1026
Stream size : 30.5 KiB (0%)
Title : Indonesian
Language : Indonesian
Default : No
Forced : No


Text #30
ID : 32
Format : UTF-8
Codec ID : S_TEXT/UTF8
Codec ID/Info : UTF-8 Plain Text
Duration : 1 h 32 min
Bit rate : 111 b/s
Count of elements : 1030
Stream size : 76.1 KiB (0%)
Title : Thai
Language : Thai
Default : No
Forced : No


Text #31
ID : 33
Format : UTF-8
Codec ID : S_TEXT/UTF8
Codec ID/Info : UTF-8 Plain Text
Duration : 1 h 32 min
Bit rate : 44 b/s
Count of elements : 1034
Stream size : 30.5 KiB (0%)
Title : Korean
Language : Korean
Default : No
Forced : No


Text #32
ID : 34
Format : UTF-8
Codec ID : S_TEXT/UTF8
Codec ID/Info : UTF-8 Plain Text
Duration : 1 h 32 min
Bit rate : 40 b/s
Count of elements : 1034
Stream size : 27.8 KiB (0%)
Title : Chinese (Simplified)
Language : Chinese
Default : No
Forced : No


Text #33
ID : 35
Format : UTF-8
Codec ID : S_TEXT/UTF8
Codec ID/Info : UTF-8 Plain Text
Duration : 1 h 32 min
Bit rate : 41 b/s
Count of elements : 1034
Stream size : 28.4 KiB (0%)
Title : Chinese (Traditional)
Language : Chinese
Default : No
Forced : No


Text #34
ID : 36
Format : UTF-8
Codec ID : S_TEXT/UTF8
Codec ID/Info : UTF-8 Plain Text
Duration : 1 h 29 min
Bit rate : 0 b/s
Count of elements : 14
Stream size : 444 Bytes (0%)
Title : Japanese [Forced]
Language : Japanese
Default : No
Forced : Yes


Text #35
ID : 37
Format : UTF-8
Codec ID : S_TEXT/UTF8
Codec ID/Info : UTF-8 Plain Text
Duration : 1 h 32 min
Bit rate : 35 b/s
Count of elements : 920
Stream size : 24.3 KiB (0%)
Title : Japanese
Language : Japanese
Default : No
Forced : No
附件名称/大小 下载次数 最后更新
The.Hard.Way.2019.1080p.NF.WEBRip.DD5.1.x264-CM.torrent (45KB)  943 03-05 22:24

最新喜欢:

bobobobo freeaifreeai
鬼火3773
精灵王
精灵王
  • 注册日期2016-10-21
  • 发帖数361
  • 影币14枚
  • 魔力值1301点
  • 蓝光币127克拉
  • 社区居民
  • 忠实会员
沙发#
发布于:2019-03-05 22:29
都是老面孔,我喜欢
xysdb2007
圣骑士
圣骑士
  • 注册日期2016-05-03
  • 发帖数25
  • 影币0枚
  • 魔力值650点
  • 蓝光币2克拉
板凳#
发布于:2019-03-05 22:42
回帖赚钱!
xysdb2007
圣骑士
圣骑士
  • 注册日期2016-05-03
  • 发帖数25
  • 影币0枚
  • 魔力值650点
  • 蓝光币2克拉
地板#
发布于:2019-03-05 22:42
不够再回!
wolf_inwind
骑士
骑士
  • 注册日期2018-04-30
  • 发帖数108
  • 影币19枚
  • 魔力值281点
  • 蓝光币11克拉
  • 社区居民
  • 忠实会员
4楼#
发布于:2019-03-05 22:49
谢谢分享
抽象大师
圣骑士
圣骑士
  • 注册日期2018-01-27
  • 发帖数206
  • 影币24枚
  • 魔力值608点
  • 蓝光币30克拉
  • 社区居民
  • 忠实会员
5楼#
发布于:2019-03-05 22:58
硬核风暴
cnhnlx
骑士
骑士
  • 注册日期2017-12-02
  • 发帖数30
  • 影币1枚
  • 魔力值351点
  • 蓝光币2克拉
  • 社区居民
  • 忠实会员
6楼#
发布于:2019-03-05 23:18
硬核风暴
cnhnlx
骑士
骑士
  • 注册日期2017-12-02
  • 发帖数30
  • 影币1枚
  • 魔力值351点
  • 蓝光币2克拉
  • 社区居民
  • 忠实会员
7楼#
发布于:2019-03-05 23:18
谢谢分享
冷月梦寒
精灵王
精灵王
  • 注册日期2017-12-18
  • 发帖数1028
  • 影币2635枚
  • 魔力值809点
  • 蓝光币162克拉
  • 社区居民
  • 最爱沙发
  • 忠实会员
8楼#
发布于:2019-03-05 23:45
谢谢楼主分享
hihi143
新手
新手
  • 注册日期2016-10-18
  • 发帖数6
  • 影币10枚
  • 魔力值89点
  • 蓝光币0克拉
9楼#
发布于:2019-03-06 00:02
感谢分享~~!~
zyyzwyf
精灵王
精灵王
  • 注册日期2017-05-17
  • 发帖数1471
  • 影币2127枚
  • 魔力值600点
  • 蓝光币767克拉
  • 社区居民
  • 忠实会员
10楼#
发布于:2019-03-06 00:39
感谢分享,感谢楼主!感谢论坛!
111ds
精灵王
精灵王
  • 注册日期2015-08-19
  • 发帖数172
  • 影币29枚
  • 魔力值1122点
  • 蓝光币1克拉
  • 社区居民
  • 忠实会员
11楼#
发布于:2019-03-06 01:57
多谢分享
111ds
精灵王
精灵王
  • 注册日期2015-08-19
  • 发帖数172
  • 影币29枚
  • 魔力值1122点
  • 蓝光币1克拉
  • 社区居民
  • 忠实会员
12楼#
发布于:2019-03-06 01:57
回帖赚影币
dongsnomman
精灵王
精灵王
  • 注册日期2017-08-04
  • 发帖数68
  • 影币47枚
  • 魔力值993点
  • 蓝光币2克拉
  • 社区居民
  • 忠实会员
13楼#
发布于:2019-03-06 07:55
不知道好看否,下载来看看
zwsee
侠客
侠客
  • 注册日期2017-07-09
  • 发帖数12
  • 影币1枚
  • 魔力值161点
  • 蓝光币0克拉
  • 社区居民
14楼#
发布于:2019-03-06 08:44
应该OK的吧
上一页
游客
返回顶部