福利发放鸡
论坛版主
论坛版主
  • 注册日期2017-03-24
  • 发帖数455
  • 影币6297枚
  • 魔力值1296点
  • 蓝光币2克拉
  • 社区居民
  • 忠实会员
  • 喜欢达人
  • 原创写手
阅读:557回复:5

[其他]2018北京榜样颁奖典礼.20190107.1080i.BTV1.HDTV.H.264.DD2.0-FLTTH.ts 4.11G

楼主#
更多 发布于:2019-01-10 12:51

图片:SS_00001.jpg

图片:SS_00002.jpg

图片:SS_00003.jpg

图片:SS_00004.jpg

图片:SS_00005.jpg

图片:SS_00006.jpg




General
ID                                       : 1 (0x1)
Complete name                            : 2018北京榜样颁奖典礼.20190107.1080i.BTV1.HDTV.H.264.DD2.0-FLTTH.ts
Format                                   : MPEG-TS
File size                                : 4.11 GiB
Duration                                 : 1 h 16 min
Overall bit rate mode                    : Variable
Overall bit rate                         : 7 735 kb/s
 
Video
ID                                       : 256 (0x100)
Menu ID                                  : 1 (0x1)
Format                                   : AVC
Format/Info                              : Advanced Video Codec
Format profile                           : High@L4
Format settings                          : CABAC / 3 Ref Frames
Format settings, CABAC                   : Yes
Format settings, RefFrames               : 3 frames
Codec ID                                 : 27
Duration                                 : 1 h 16 min
Bit rate                                 : 6 965 kb/s
Width                                    : 1 920 pixels
Height                                   : 1 080 pixels
Display aspect ratio                     : 16:9
Frame rate                               : 25.000 FPS
Standard                                 : Component
Color space                              : YUV
Chroma subsampling                       : 4:2:0
Bit depth                                : 8 bits
Scan type                                : Interlaced
Scan type, store method                  : Separated fields
Scan order                               : Top Field First
Bits/(Pixel*Frame)                       : 0.134
Stream size                              : 3.70 GiB (90%)
Color range                              : Limited
Color primaries                          : BT.709
Transfer characteristics                 : BT.709
Matrix coefficients                      : BT.709
 
Audio
ID                                       : 257 (0x101)
Menu ID                                  : 1 (0x1)
Format                                   : AC-3
Format/Info                              : Audio Coding 3
Codec ID                                 : 129
Duration                                 : 1 h 16 min
Bit rate mode                            : Constant
Bit rate                                 : 384 kb/s
Channel(s)                               : 2 channels
Channel positions                        : Front: L R
Sampling rate                            : 48.0 kHz
Frame rate                               : 31.250 FPS (1536 SPF)
Bit depth                                : 16 bits
Compression mode                         : Lossy
Delay relative to video                  : -21 ms
Stream size                              : 209 MiB (5%)
Service kind                             : Complete Main
 
Menu
ID                                       : 4096 (0x1000)
Menu ID                                  : 1 (0x1)
Duration                                 : 1 h 16 min
List                                     : 256 (0x100) (AVC) / 257 (0x101) (AC-3)
Service name                             : BTV
Service provider                         : BGCTV
Service type                             : user defined



节目介绍:
    近日,由中共北京市委宣传部、首都文明办主办,北京广播电视台、北京人民广播电台、北京电视台承办的“2018北京榜样”颁奖典礼在北京电视台举行。宋玺、李东方、周晔、刘宝中、田琴、梁萍、郎恩鸽、程刚、苑永萍、夏伯渝当选“2018北京榜样”年榜人物;北京市公共文明引导员总队、“6·15”朝阳见义勇为群体、为一线采编事业奉献毕生的好记者金蕾当选“2018北京榜样”年度特别榜,付超等50人获得“北京榜样”提名奖。市委常委、宣传部长杜飞进以及中央有关部门、驻京部队,各区、各系统相关部门负责人和首都各界群众代表450余人观看了颁奖典礼。
    2018年,全市街乡镇、社区村和基层单位共举荐身边榜样9874人,经过组委会办公室评审,共产生“北京榜样”周榜和月榜人物130名。根据评选规则和标准,榜样候选人经公示点赞、评委投票等程序最终产生年榜人物。既有索马里护航扬国威的90后北大女生宋玺,又有扎根戈壁为国宝造像的非遗技师李东方;既有把爱献给听障孩子的特殊教育学校校长周晔,又有“313”路公交车有颗菩萨心的好司机刘宝中;既有为七位老人撑起一片天的好姑娘田琴,又有擦亮街区底色守护美好家园的小巷管家梁萍;既有让更多人爱上冰雪运动的农民滑雪队长郎恩鸽,又有用创新书写中国标准的新药研发领路人程刚;既有设计“百号”版型服装诚信经营的企业家苑永萍,又有终圆珠峰梦的无腿志者夏伯渝。同时涌现出北京市公共文明引导员总队、“6·15”朝阳见义勇为群体、为一线采编事业奉献毕生的好记者金蕾3名年度特别榜。这些榜样人物可亲、可敬、可学,是新时代弘扬和践行社会主义核心价值观的优秀群体,为谱写“中国梦”的北京篇章树起了精神标杆。
    “2018北京榜样”颁奖典礼秉承“北京榜样——平凡中的力量”理念,分三个篇章展示榜样风采。情怀篇,展现榜样人物热爱祖国、热爱首都的深厚情怀;道德篇,展现榜样人物积善成德、善满京城的道德追求;梦想篇,展现榜样人物开拓进取、拼搏为美的奋斗品质。现场通过人物短片、榜样宣言、颁授奖杯、致敬礼赞等方式,深刻阐发了年榜人物震撼人心的道德之美,生动诠释了“北京榜样”的精神价值。著名艺术大师韩美林、国家一级演员、军旅歌唱家蔡国庆、著名小提琴演奏家吕思清、著名演员谢芳、张目夫妇、吴京、雷恪生、吕中、朱时茂、张凯丽和田径世界冠军郑凤荣和奥运冠军陈一冰等文化名人出席典礼并为榜样人物颁奖。国家一级演员、军旅歌唱家雷佳,美声歌唱家张英席、青年女高音歌唱家王莉,著名歌手降央卓玛等纷纷为榜样献唱,用真情美妙的歌颂榜样精神。
    “2018北京榜样”主题活动坚持开门办评选,坚持从社区(村)、基层单位做起,坚持常态化与阶段性相结合、选树榜样和宣传好事相结合、线上交流学习与线下公益实践相结合,全年围绕疏解整治促提升、落实城市总体规划、筹办冬奥会冬残奥会等全市中心工作展开,选树和宣传了一批时代性、典型性、示范性强的榜样人物。“北京榜样”主题活动开展以来,各级举荐的身边榜样已达25万人,经过层层遴选进入市级“榜样库”的榜样候选人接近1万人,被评选表彰为“北京榜样”周榜、月榜和年榜人物的突破600人,分布在各行各业,覆盖到企业、街道社区、农村、机关、大中小学校、科研院所、社会团体和“两新”组织。
    2018年,全市各级深入推进“学榜样我行动”活动,推动“北京榜样”热在基层。目前街乡镇一级“举荐榜”覆盖率达到100%,社区村一级覆盖率达到91.2%;各区、各系统充分利用区、行业(系统)新闻媒体、“道德讲堂”、城乡电子大屏、微信矩阵、文艺作品、巡讲活动等方式广泛传播榜样精神;结合背街小巷文明创建、“周末卫生大扫除”、“门前三包”、“蓝天行动”、“空调调高一度”、“回天有我”等行动,榜样带头开展一系列活动,市民群众一呼百应;邀请“北京榜样”代表参加中超联赛和CBA赛事、重阳节“善满京城”、2019年新年倒计时等活动,“礼遇榜样 热在北京”,在全社会树立好人好报的价值导向。“北京榜样”品牌被越擦越亮。



下载地址:
https://pan.baidu.com/s/1QgHz-zcpcOhfg1hmPeaT3w

最新喜欢:

zyyzwyfzyyzwy...
某些人
精灵王
精灵王
  • 注册日期2016-12-31
  • 发帖数289
  • 影币306枚
  • 魔力值1277点
  • 蓝光币13克拉
  • 社区居民
  • 忠实会员
沙发#
发布于:2019-01-11 10:28
多谢楼主分享。
lfmok
骑士
骑士
  • 注册日期2016-01-29
  • 发帖数159
  • 影币231枚
  • 魔力值242点
  • 蓝光币5克拉
板凳#
发布于:2019-01-13 20:12
谢谢分享。。。。。。。。。。。
gh6
gh6
侠客
侠客
  • 注册日期2017-02-09
  • 发帖数64
  • 影币123枚
  • 魔力值42点
  • 蓝光币51克拉
  • 社区居民
  • 忠实会员
地板#
发布于:2019-01-13 21:00
谢谢楼主无私分享
jk2017lj
侠客
侠客
  • 注册日期2017-11-28
  • 发帖数198
  • 影币186枚
  • 魔力值88点
  • 蓝光币136克拉
  • 社区居民
4楼#
发布于:2019-01-15 11:50
这些人都是很伟大的人,是这个时代的骄傲@
zyyzwyf
精灵王
精灵王
  • 注册日期2017-05-17
  • 发帖数1462
  • 影币2115枚
  • 魔力值592点
  • 蓝光币765克拉
  • 社区居民
  • 忠实会员
5楼#
发布于:2019-02-18 12:52
感谢分享,感谢楼主!支持论坛!
游客
返回顶部