福利发放鸡
论坛版主
论坛版主
  • 注册日期2017-03-24
  • 发帖数455
  • 影币6297枚
  • 魔力值1296点
  • 蓝光币2克拉
  • 社区居民
  • 忠实会员
  • 喜欢达人
  • 原创写手
阅读:1519回复:10

[其他]2019环球跨年冰雪盛典 2019.New.Year.Global.Gala.20181231.1080i.BTV1.HDTV.H.264.DD5.1-FLTTH.ts 21.3G

楼主#
更多 发布于:2019-01-08 17:39

图片:SS_00001.jpg

图片:SS_00002.jpg

图片:SS_00003.jpg

图片:SS_00004.jpg

图片:SS_00005.jpg

图片:SS_00006.jpg



General
ID                                       : 1 (0x1)
Complete name                            : 2019.New.Year.Global.Gala.20181231.1080i.BTV1.HDTV.H.264.DD5.1-FLTTH.ts
Format                                   : MPEG-TS
File size                                : 21.3 GiB
Duration                                 : 4 h 52 min
Overall bit rate mode                    : Variable
Overall bit rate                         : 10.5 Mb/s
 
Video
ID                                       : 256 (0x100)
Menu ID                                  : 1 (0x1)
Format                                   : AVC
Format/Info                              : Advanced Video Codec
Format profile                           : High@L4.1
Format settings                          : CABAC / 2 Ref Frames
Format settings, CABAC                   : Yes
Format settings, RefFrames               : 2 frames
Format settings, GOP                     : M=3, N=30
Codec ID                                 : 27
Duration                                 : 4 h 52 min
Bit rate mode                            : Variable
Bit rate                                 : 9 486 kb/s
Maximum bit rate                         : 13.5 Mb/s
Width                                    : 1 920 pixels
Height                                   : 1 080 pixels
Display aspect ratio                     : 16:9
Frame rate                               : 25.000 FPS
Color space                              : YUV
Chroma subsampling                       : 4:2:0
Bit depth                                : 8 bits
Scan type                                : Interlaced
Scan type, store method                  : Separated fields
Scan order                               : Top Field First
Bits/(Pixel*Frame)                       : 0.183
Stream size                              : 19.3 GiB (91%)
 
Audio
ID                                       : 257 (0x101)
Menu ID                                  : 1 (0x1)
Format                                   : AC-3
Format/Info                              : Audio Coding 3
Commercial name                          : Dolby Digital
Codec ID                                 : 129
Duration                                 : 4 h 52 min
Bit rate mode                            : Constant
Bit rate                                 : 448 kb/s
Channel(s)                               : 6 channels
Channel layout                           : L R C LFE Ls Rs
Sampling rate                            : 48.0 kHz
Frame rate                               : 31.250 FPS (1536 SPF)
Bit depth                                : 16 bits
Compression mode                         : Lossy
Delay relative to video                  : -896 ms
Stream size                              : 936 MiB (4%)
Service kind                             : Complete Main
 
Menu
ID                                       : 4096 (0x1000)
Menu ID                                  : 1 (0x1)
Duration                                 : 4 h 52 min
List                                     : 256 (0x100) (AVC) / 257 (0x101) (AC-3)
Service name                             : BTV1-HD
Service provider                         : BTV
Service type                             : digital television
节目简介:
   由北京电视台、黑龙江广播电视台、河北广播电视台三地卫视联合承办的以冬奥为主题的冰雪文化跨年晚会——“2019环球跨年冰雪盛典”于2018年12月31日晚爆燃出击,天地为景,冰雪欢歌。关晓彤、武大靖、ONER、许魏洲等艺人倾情加盟。三大主场,八地联动!打造国内首档实景跨年秀!天涯共此时,冰雪新篇章!助力冬奥,燃情跨年!
   萌叔腾格尔硬核改编《日不落》,“东北第一高音”武大靖倾情演绎《夜空中最亮的星》;崔健&郑钧&汪峰&黑豹乐队点燃摇滚之魂,ONER跨年首秀献唱《瞬》;张天爱周冬雨熊梓淇于朦胧同台合唱《强国一代有我在》,“表情包巨头”花泽香菜登台突破次元壁,张惠妹张韶涵杨坤金曲串烧。

下载地址:
https://pan.baidu.com/s/1FazE1-pFcseyyjtwn7vGGw

最新喜欢:

zyyzwyfzyyzwy...
别在装虚伪
精灵王
精灵王
  • 注册日期2017-02-22
  • 发帖数787
  • 影币816枚
  • 魔力值820点
  • 蓝光币524克拉
  • 社区居民
  • 忠实会员
沙发#
发布于:2019-01-08 20:50
感谢分享,,,,,,,,,,,,,,,,
zuozuo
精灵王
精灵王
  • 注册日期2015-09-21
  • 发帖数797
  • 影币701枚
  • 魔力值1587点
  • 蓝光币228克拉
  • 社区居民
  • 忠实会员
板凳#
发布于:2019-01-09 08:12
111111111111
rigty21
骑士
骑士
  • 注册日期2015-08-27
  • 发帖数108
  • 影币0枚
  • 魔力值263点
  • 蓝光币4克拉
  • 社区居民
地板#
发布于:2019-01-09 10:23
多谢楼主
joshuashea
圣骑士
圣骑士
  • 注册日期2016-07-11
  • 发帖数116
  • 影币97枚
  • 魔力值526点
  • 蓝光币15克拉
  • 社区居民
  • 忠实会员
4楼#
发布于:2019-01-09 11:08
感谢分享。。。。。。。。。。
zzh608001
骑士
骑士
  • 注册日期2017-10-17
  • 发帖数99
  • 影币1枚
  • 魔力值208点
  • 蓝光币5克拉
  • 社区居民
  • 忠实会员
5楼#
发布于:2019-01-09 18:29
谢谢,非常好
冷月梦寒
精灵王
精灵王
  • 注册日期2017-12-18
  • 发帖数1013
  • 影币2590枚
  • 魔力值797点
  • 蓝光币166克拉
  • 社区居民
  • 最爱沙发
  • 忠实会员
6楼#
发布于:2019-01-09 20:23
谢谢楼主分享
dacong2424
圣骑士
圣骑士
  • 注册日期2017-03-19
  • 发帖数256
  • 影币209枚
  • 魔力值517点
  • 蓝光币24克拉
  • 社区居民
  • 忠实会员
7楼#
发布于:2019-01-10 09:48
多谢楼主的无私分享
某些人
精灵王
精灵王
  • 注册日期2016-12-31
  • 发帖数289
  • 影币306枚
  • 魔力值1277点
  • 蓝光币13克拉
  • 社区居民
  • 忠实会员
8楼#
发布于:2019-01-11 10:26
多谢分享。
long34522180
骑士
骑士
  • 注册日期2017-06-30
  • 发帖数241
  • 影币220枚
  • 魔力值176点
  • 蓝光币185克拉
9楼#
发布于:2019-01-12 19:31
萌叔腾格尔硬核改编《日不落》,“东北第一高音”武大靖倾情演绎《夜空中最亮的星》;崔健&郑钧&汪峰&黑豹乐队点燃摇滚之魂,ONER跨年首秀献唱《瞬》;张天爱周冬雨熊梓淇于朦胧同台合唱《强国一代有我在》,“表情包巨头”花泽香菜登台突破次元壁,张惠妹张韶涵杨坤金曲串烧。
zyyzwyf
精灵王
精灵王
  • 注册日期2017-05-17
  • 发帖数1462
  • 影币2115枚
  • 魔力值592点
  • 蓝光币765克拉
  • 社区居民
  • 忠实会员
10楼#
发布于:2019-02-15 01:31
感谢分享,感谢楼主!支持论坛!
游客
返回顶部