福利发放鸡
论坛版主
论坛版主
  • 注册日期2017-03-24
  • 发帖数455
  • 影币6297枚
  • 魔力值1296点
  • 蓝光币2克拉
  • 社区居民
  • 忠实会员
  • 喜欢达人
  • 原创写手
阅读:858回复:7

[其他]《放歌新时代—2019新年特别节目》.20190101.1080i.CCTV3.HDTV.H.264.DD5.1-FLTTH.ts 10.1G

楼主#
更多 发布于:2019-01-08 17:18

图片:SS_00001.jpg

图片:SS_00002.jpg

图片:SS_00003.jpg

图片:SS_00004.jpg

图片:SS_00006.jpg

图片:SS_00007.jpg



General
ID                                       : 1 (0x1)
Complete name                            : 放歌新时代.20190101.1080i.CCTV3.HDTV.H.264.DD5.1-FLTTH.ts
Format                                   : MPEG-TS
File size                                : 10.1 GiB
Duration                                 : 2 h 41 min
Overall bit rate mode                    : Variable
Overall bit rate                         : 8 952 kb/s
   
Video
ID                                       : 256 (0x100)
Menu ID                                  : 1 (0x1)
Format                                   : AVC
Format/Info                              : Advanced Video Codec
Format profile                           : High@L4
Format settings                          : CABAC / 3 Ref Frames
Format settings, CABAC                   : Yes
Format settings, RefFrames               : 3 frames
Format settings, GOP                     : M=3, N=15
Codec ID                                 : 27
Duration                                 : 2 h 41 min
Bit rate mode                            : Constant
Bit rate                                 : 7 800 kb/s
Width                                    : 1 920 pixels
Height                                   : 1 080 pixels
Display aspect ratio                     : 16:9
Frame rate                               : 25.000 FPS
Color space                              : YUV
Chroma subsampling                       : 4:2:0
Bit depth                                : 8 bits
Scan type                                : Interlaced
Scan type, store method                  : Separated fields
Scan order                               : Top Field First
Bits/(Pixel*Frame)                       : 0.150
Stream size                              : 9.11 GiB (90%)
Color range                              : Limited
Color primaries                          : BT.709
Transfer characteristics                 : BT.709
Matrix coefficients                      : BT.709
   
Audio
ID                                       : 257 (0x101)
Menu ID                                  : 1 (0x1)
Format                                   : AC-3
Format/Info                              : Audio Coding 3
Codec ID                                 : 129
Duration                                 : 2 h 41 min
Bit rate mode                            : Constant
Bit rate                                 : 448 kb/s
Channel(s)                               : 6 channels
Channel positions                        : Front: L C R, Side: L R, LFE
Sampling rate                            : 48.0 kHz
Frame rate                               : 31.250 FPS (1536 SPF)
Bit depth                                : 16 bits
Compression mode                         : Lossy
Delay relative to video                  : -508 ms
Stream size                              : 518 MiB (5%)
Language                                 : English
Service kind                             : Complete Main
   
Menu
ID                                       : 4096 (0x1000)
Menu ID                                  : 1 (0x1)
Duration                                 : 2 h 41 min
List                                     : 256 (0x100) (AVC) / 257 (0x101) (AC-3, English)
Language                                 :  / English
Service name                             : CCTV3
Service provider                         : BGCTV
Service type                             : user defined

节目简介:
    2019年1月1日,中央广播电视总台《放歌新时代—2019新年特别节目》正式与观众见面。此次特别节目以“放歌新时代”为主题,汇集老、中、青三代歌唱家、歌手和影视演员同台献唱,更是邀请多位各行业杰出代表,一同致敬经典,开启未来。



下载地址:
https://pan.baidu.com/s/12atpoXcFV8J2nuXSLuf52w

最新喜欢:

zyyzwyfzyyzwy...
zuozuo
精灵王
精灵王
  • 注册日期2015-09-21
  • 发帖数797
  • 影币701枚
  • 魔力值1587点
  • 蓝光币228克拉
  • 社区居民
  • 忠实会员
沙发#
发布于:2019-01-09 08:12
11111111111111
冷月梦寒
精灵王
精灵王
  • 注册日期2017-12-18
  • 发帖数1013
  • 影币2590枚
  • 魔力值797点
  • 蓝光币166克拉
  • 社区居民
  • 最爱沙发
  • 忠实会员
板凳#
发布于:2019-01-09 20:23
谢谢楼主分享
某些人
精灵王
精灵王
  • 注册日期2016-12-31
  • 发帖数289
  • 影币306枚
  • 魔力值1277点
  • 蓝光币13克拉
  • 社区居民
  • 忠实会员
地板#
发布于:2019-01-11 10:28
多谢楼主分享。
lhf396
新手
新手
  • 注册日期2016-10-25
  • 发帖数12
  • 影币12枚
  • 魔力值68点
  • 蓝光币0克拉
4楼#
发布于:2019-01-12 15:45
下载看看,很不错,谢谢
gh6
gh6
侠客
侠客
  • 注册日期2017-02-09
  • 发帖数64
  • 影币123枚
  • 魔力值42点
  • 蓝光币51克拉
  • 社区居民
  • 忠实会员
5楼#
发布于:2019-01-13 21:01
谢谢楼主无私分享
煎饼xp
侠客
侠客
  • 注册日期2015-07-29
  • 发帖数20
  • 影币18枚
  • 魔力值195点
  • 蓝光币1克拉
6楼#
发布于:2019-01-16 14:39
非常感谢
zyyzwyf
精灵王
精灵王
  • 注册日期2017-05-17
  • 发帖数1462
  • 影币2115枚
  • 魔力值592点
  • 蓝光币765克拉
  • 社区居民
  • 忠实会员
7楼#
发布于:2019-02-15 01:46
感谢分享,感谢楼主!感谢SeeHd!
游客
返回顶部