福利发放鸡
论坛版主
论坛版主
  • 注册日期2017-03-24
  • 发帖数455
  • 影币6297枚
  • 魔力值1296点
  • 蓝光币2克拉
  • 社区居民
  • 忠实会员
  • 喜欢达人
  • 原创写手
阅读:558回复:4

[其他]旋转吧假期.20181231-20190102.1080i.CCTV3.HDTV.H.264.DD5.1-FLTTH 12.3G

楼主#
更多 发布于:2019-01-08 17:04

图片:SS_00005.jpg

图片:SS_00008.jpg

图片:SS_00009.jpg

图片:SS_00010.jpg

图片:SS_00011.jpg

图片:SS_00012.jpg



General
ID                                       : 1 (0x1)
Complete name                            : 旋转吧假期.20181231.1080i.CCTV3.HDTV.H.264.DD5.1-FLTTH.ts
Format                                   : MPEG-TS
File size                                : 3.93 GiB
Duration                                 : 1 h 2 min
Overall bit rate mode                    : Variable
Overall bit rate                         : 8 953 kb/s
 
Video
ID                                       : 256 (0x100)
Menu ID                                  : 1 (0x1)
Format                                   : AVC
Format/Info                              : Advanced Video Codec
Format profile                           : High@L4
Format settings                          : CABAC / 3 Ref Frames
Format settings, CABAC                   : Yes
Format settings, RefFrames               : 3 frames
Format settings, GOP                     : M=3, N=15
Codec ID                                 : 27
Duration                                 : 1 h 2 min
Bit rate mode                            : Constant
Bit rate                                 : 7 800 kb/s
Width                                    : 1 920 pixels
Height                                   : 1 080 pixels
Display aspect ratio                     : 16:9
Frame rate                               : 25.000 FPS
Color space                              : YUV
Chroma subsampling                       : 4:2:0
Bit depth                                : 8 bits
Scan type                                : Interlaced
Scan type, store method                  : Separated fields
Scan order                               : Top Field First
Bits/(Pixel*Frame)                       : 0.150
Stream size                              : 3.54 GiB (90%)
Color range                              : Limited
Color primaries                          : BT.709
Transfer characteristics                 : BT.709
Matrix coefficients                      : BT.709
 
Audio
ID                                       : 257 (0x101)
Menu ID                                  : 1 (0x1)
Format                                   : AC-3
Format/Info                              : Audio Coding 3
Codec ID                                 : 129
Duration                                 : 1 h 2 min
Bit rate mode                            : Constant
Bit rate                                 : 448 kb/s
Channel(s)                               : 6 channels
Channel positions                        : Front: L C R, Side: L R, LFE
Sampling rate                            : 48.0 kHz
Frame rate                               : 31.250 FPS (1536 SPF)
Bit depth                                : 16 bits
Compression mode                         : Lossy
Delay relative to video                  : -181 ms
Stream size                              : 202 MiB (5%)
Language                                 : English
Service kind                             : Complete Main
 
Menu
ID                                       : 4096 (0x1000)
Menu ID                                  : 1 (0x1)
Duration                                 : 1 h 2 min
List                                     : 256 (0x100) (AVC) / 257 (0x101) (AC-3, English)
Language                                 :  / English
Service name                             : CCTV3
Service provider                         : BGCTV
Service type                             : user defined
节目介绍:

    《旋转吧假期》,用情景喜剧的形式为观众带来不一样的综艺体验,欢乐开年。节目以主持人杨帆组建团队打造综艺访谈秀为主线进行嘉宾互动、喜剧作品表演,开放式引入嘉宾的即兴发挥,在碰撞中迸发火花,让人物访谈与喜剧作品融为一体,为观众呈现一场充满惊喜感的欢乐盛宴。主持人杨帆、明星嘉宾黄晓娟和喜剧演员蒋易、魏来、周培岩等在不同场景中上演多段爆笑短剧,一路狂飙演技,令人捧腹不已。
    正如“旋转”的含义,《旋转吧,假期》打破喜剧综艺的固定模式,采取“喜剧+访谈+游戏”融合多元要素的新喜剧模式。节目以主持人杨帆组建团队打造综艺访谈秀为主线进行嘉宾互动、喜剧作品表演,开放式引入嘉宾的即兴发挥,在碰撞中迸发火花,让人物访谈与喜剧作品融为一体,为观众呈现一场充满惊喜感的欢乐盛宴。
    每期节目包含四个喜剧作品,囊括情景式小品、即兴喜剧、音乐串烧、现场脱口秀等多种表演形式。主持人杨帆、明星嘉宾钟镇涛、李琦、黄晓娟将和喜剧演员李丁、蒋易、魏来、周培岩等在“茶馆”、“化妆间”等不同场景中上演多段爆笑短剧,一路狂飙演技,令人捧腹不已,用笑声填满元旦假期。
    在节目中,观众将重新认识“全才笑星”李琦,“温拿五虎”钟镇涛,以及“小品女皇”黄晓娟,他们将不仅分享自己的独家记忆,演绎经典作品,同时也将呈现出最真实可爱的一面。除特邀嘉宾之外,主持人杨帆也是本次特别节目的一大亮点。在喜剧互动环节中,杨帆也开始挑战自己的潜力,展现出其在主持人、音乐人和喜剧人之间自由穿梭的超凡实力。
    从默默无闻的龙套演员到吹拉弹唱样样精通的“全才笑星”,国家一级演员李琦化身“李大爷”,现场展现自己的拿手绝技——鞭子功,惊艳全场。歌曲游戏环节,“温拿五虎”钟镇涛现身助阵,领唱《Monica》、《千千阙歌》、《当爱已成往事》、《只要你过得比我好》等流行金曲,久违的经典音乐直击观众心底记忆,瞬间将现场气氛推向最高潮。“小品女皇”著名影视演员黄晓娟讲述与潘长江搭档,创造小品界“最萌身高差”的逗趣经历,并与主持人杨帆再度演绎经典小品《桥》中的舞蹈片段《担鲜藕》,又会产生怎样的笑料?
    据节目主创透露,在保留以往喜剧类节目优点的基础上,本次节目引入了流行喜剧综艺的元素,以年轻人和中老年人的双视角来整合节目的节奏与表演形式,打造出一档节奏轻快,既适合年轻观众又关照老年群体的喜剧类节目。节目中,《只要你过得比我好》、《办公室无间道》、《不靠谱的音乐指导》、《都是他说的》等情景短剧轮番登场,一再反转的剧情、出其不意的笑点以及牺牲形象的卖力表演,让熟悉的话题热点迸发出强烈喜感。此外,本次节目联合腾讯微视,将一些网络上流行的搞笑类短视频,以真人出演的方式搬上电视荧屏,更加符合年轻人审美。
    在整体视觉效果的呈现上,节目采用U型景与实景相结合,并为每一个情景喜剧量身打造专属这个作品的视觉场景,运用镜头表现的多样性,让节目呈现更有质感。在舞美设计上,节目创新采用180度半环形舞台和旋转观众席。舞台分为五个表演区域,在表演时,节目跳过换景撤景环节,通过观众席旋转调整观演角度直接开演,让串联环节变为节目。
    超强的卡司阵容,前所未有的呈现模式,妙趣横生的喜剧内容,《旋转吧,假期》将用最顶级的诚意制作呈现给观众一场耳目一新的喜剧盛宴。12月31日晚19:00、1月1日晚18:30、1月2日晚19:00,CCTV-3《旋转吧,假期》与您笑迎新年!



下载地址(全3期):
https://pan.baidu.com/s/1yOtBWzfKKOlU2BI-ymVG-Q
冷月梦寒
精灵王
精灵王
  • 注册日期2017-12-18
  • 发帖数1013
  • 影币2590枚
  • 魔力值797点
  • 蓝光币166克拉
  • 社区居民
  • 最爱沙发
  • 忠实会员
沙发#
发布于:2019-01-09 20:24
谢谢楼主分享
某些人
精灵王
精灵王
  • 注册日期2016-12-31
  • 发帖数289
  • 影币306枚
  • 魔力值1277点
  • 蓝光币13克拉
  • 社区居民
  • 忠实会员
板凳#
发布于:2019-01-11 10:28
多谢楼主分享。
gh6
gh6
侠客
侠客
  • 注册日期2017-02-09
  • 发帖数64
  • 影币123枚
  • 魔力值42点
  • 蓝光币51克拉
  • 社区居民
  • 忠实会员
地板#
发布于:2019-01-13 21:00
谢谢楼主无私分享
beyondhing
圣骑士
圣骑士
  • 注册日期2015-08-01
  • 发帖数600
  • 影币16枚
  • 魔力值181点
  • 蓝光币4克拉
4楼#
发布于:2019-02-24 12:07
NICCE~~~~~~~~~~~~~~~~~~~~~~~~~~~~~~~!!!
游客
返回顶部