福利发放鸡
论坛版主
论坛版主
  • 注册日期2017-03-24
  • 发帖数416
  • 影币5135枚
  • 魔力值1214点
  • 蓝光币2克拉
  • 社区居民
  • 忠实会员
  • 喜欢达人
  • 原创写手
阅读:423回复:3

[其他]奇幻嘉年华.20190102.1080i.CCTV3.HDTV.H.264.DD5.1-FLTTH.ts 6.25G

楼主#
更多 发布于:2019-01-08 16:21

图片:SS_00007.jpg

图片:SS_00008.jpg

图片:SS_00009.jpg

图片:SS_00010.jpg

图片:SS_00011.jpg

图片:SS_00012.jpg


General
ID                                       : 1 (0x1)
Complete name                            : 奇幻嘉年华.20190102.1080i.CCTV3.HDTV.H.264.DD5.1-FLTTH.ts
Format                                   : MPEG-TS
File size                                : 6.25 GiB
Duration                                 : 1 h 40 min
Overall bit rate mode                    : Variable
Overall bit rate                         : 8 953 kb/s
   
Video
ID                                       : 256 (0x100)
Menu ID                                  : 1 (0x1)
Format                                   : AVC
Format/Info                              : Advanced Video Codec
Format profile                           : High@L4
Format settings                          : CABAC / 3 Ref Frames
Format settings, CABAC                   : Yes
Format settings, RefFrames               : 3 frames
Format settings, GOP                     : M=3, N=15
Codec ID                                 : 27
Duration                                 : 1 h 40 min
Bit rate mode                            : Constant
Bit rate                                 : 7 800 kb/s
Width                                    : 1 920 pixels
Height                                   : 1 080 pixels
Display aspect ratio                     : 16:9
Frame rate                               : 25.000 FPS
Color space                              : YUV
Chroma subsampling                       : 4:2:0
Bit depth                                : 8 bits
Scan type                                : Interlaced
Scan type, store method                  : Separated fields
Scan order                               : Top Field First
Bits/(Pixel*Frame)                       : 0.150
Stream size                              : 5.63 GiB (90%)
Color range                              : Limited
Color primaries                          : BT.709
Transfer characteristics                 : BT.709
Matrix coefficients                      : BT.709
   
Audio
ID                                       : 257 (0x101)
Menu ID                                  : 1 (0x1)
Format                                   : AC-3
Format/Info                              : Audio Coding 3
Codec ID                                 : 129
Duration                                 : 1 h 40 min
Bit rate mode                            : Constant
Bit rate                                 : 448 kb/s
Channel(s)                               : 6 channels
Channel positions                        : Front: L C R, Side: L R, LFE
Sampling rate                            : 48.0 kHz
Frame rate                               : 31.250 FPS (1536 SPF)
Bit depth                                : 16 bits
Compression mode                         : Lossy
Delay relative to video                  : -153 ms
Stream size                              : 320 MiB (5%)
Language                                 : English
Service kind                             : Complete Main
   
Menu
ID                                       : 4096 (0x1000)
Menu ID                                  : 1 (0x1)
Duration                                 : 1 h 40 min
List                                     : 256 (0x100) (AVC) / 257 (0x101) (AC-3, English)
Language                                 :  / English
Service name                             : CCTV3
Service provider                         : BGCTV
Service type                             : user defined
节目介绍:
    汇聚中外顶尖艺术家,打造奇幻之夜,共享魔法之光!由央视综艺频道制作推出的特别节目《奇幻嘉年华》于1月2日晚19:30与观众见面。节目集结了全球的才艺达人和表演团体,展示魔术、杂技、歌舞、动漫、马戏等各类艺术形式,结合科技手段、光影特效,营造了一场前所未有的视觉盛宴。全方位、多层次地体现文艺繁荣的新动能,为绚丽多彩的新年荧屏增添了一抹亮色。
    此次节目于12月22日完成录制,录制地点选择了梦幻王国——深圳欢乐谷。节目由央视著名主持人张蕾、杨帆和深圳卫视主持人张星月联袂主持,在国内超人气女团SNH48演唱的《最好的舞台》中激情开场。动感的旋律,配合默契的现场表演,绚丽的舞台包装,瞬间点燃现场观众的热情。哈萨克斯坦歌手迪玛希用中文演绎《热闹星球》、古巨基重塑经典之作《莫妮卡》、俄罗斯尼古林马戏团带来精彩《蹬技》……来自世界多国的艺术家们,用精湛的艺术为全国观众送上一份新年的饕餮大餐。
    此次节目借助园区内特有的水上表演区域,搭建起了一艘带有奇幻色彩的邮轮,作为主舞台。这个融合了魔幻的舞美形象、多彩的灯光效果以及科技感十足的大型水上舞台,成为了此次节目的一大亮点。
    此次节目不再拘泥于传统的主持人舞台串联方式,而是巧妙地利用园区内特有的花车表演、动漫秀、魔术秀等方式,将主持人串联完美融入其中,这一形式的加入既使全场的串联方式更加丰富、生动,又突出了嘉年华的节目特色。
    在《奇幻嘉年华》的舞台上,来自乌克兰的艺术家用《踢踏舞与球技》完美演绎出一段清脆的交响乐;来自俄罗斯《快乐的猫猫》化身超人,上天揽月;战士红星艺术团的演员们用精湛的杂技释放快乐、激情《腾跃》;来自宝岛台湾的魔术师丁建中挑战《极限穿越》……中外艺术家们用技巧“对话”,碰撞出艺术的火花渲染了整个奇幻号邮轮。
    当张信哲深情演绎那首《白月光》、当许茹芸再次唱起《爱就爱吧》,一丝爱意为这场奇幻之旅装点了些许浪漫;当张卫健重现《少年梦》、当好妹妹乐队重新演绎《追梦人》,又是否能激荡起你心中那份稚涩的青春?
    欢乐的海洋,奇幻的世界……央视综艺频道CCTV3特别节目《奇幻嘉年华》,邀您一同出发。



下载地址:
https://pan.baidu.com/s/1-CBD_wy_2WoKFBTRPjWkvQ
冷月梦寒
精灵王
精灵王
  • 注册日期2017-12-18
  • 发帖数725
  • 影币2139枚
  • 魔力值699点
  • 蓝光币152克拉
  • 社区居民
  • 最爱沙发
  • 忠实会员
沙发#
发布于:2019-01-09 20:24
谢谢楼主分享
某些人
精灵王
精灵王
  • 注册日期2016-12-31
  • 发帖数276
  • 影币293枚
  • 魔力值1170点
  • 蓝光币8克拉
  • 社区居民
  • 忠实会员
板凳#
发布于:2019-01-11 10:29
多谢楼主分享。
ahhbwj
精灵王
精灵王
  • 注册日期2015-12-13
  • 发帖数686
  • 影币1234枚
  • 魔力值1614点
  • 蓝光币260克拉
地板#
发布于:2019-01-12 08:04
感谢楼主分享
游客
返回顶部