福利发放鸡
论坛版主
论坛版主
  • 注册日期2017-03-24
  • 发帖数455
  • 影币6297枚
  • 魔力值1296点
  • 蓝光币2克拉
  • 社区居民
  • 忠实会员
  • 喜欢达人
  • 原创写手
阅读:598回复:3

[其他]《相聚中国节·奋进!2019》.20190101.1080i.CCTV1.HDTV.H.264.DD5.1-FLTTH.ts 11.6G

楼主#
更多 发布于:2019-01-08 16:10

图片:SS_00001.jpg

图片:SS_00002.jpg

图片:SS_00003.jpg

图片:SS_00004.jpg

图片:SS_00005.jpg

图片:SS_00006.jpg


General
ID                                       : 1 (0x1)
Complete name                            : 奋进.2019.20190101.1080i.CCTV1.HDTV.H.264.DD5.1-FLTTH.ts
Format                                   : MPEG-TS
File size                                : 11.6 GiB
Duration                                 : 3 h 16 min
Overall bit rate mode                    : Variable
Overall bit rate                         : 8 414 kb/s
  
Video
ID                                       : 256 (0x100)
Menu ID                                  : 1 (0x1)
Format                                   : AVC
Format/Info                              : Advanced Video Codec
Format profile                           : High@L4
Format settings                          : CABAC / 2 Ref Frames
Format settings, CABAC                   : Yes
Format settings, RefFrames               : 2 frames
Format settings, GOP                     : M=3, N=12
Codec ID                                 : 27
Duration                                 : 3 h 16 min
Bit rate                                 : 7 546 kb/s
Width                                    : 1 920 pixels
Height                                   : 1 080 pixels
Display aspect ratio                     : 16:9
Frame rate                               : 25.000 FPS
Color space                              : YUV
Chroma subsampling                       : 4:2:0
Bit depth                                : 8 bits
Scan type                                : Interlaced
Scan type, store method                  : Separated fields
Scan order                               : Top Field First
Bits/(Pixel*Frame)                       : 0.146
Stream size                              : 10.4 GiB (90%)
  
Audio
ID                                       : 257 (0x101)
Menu ID                                  : 1 (0x1)
Format                                   : AC-3
Format/Info                              : Audio Coding 3
Codec ID                                 : 129
Duration                                 : 3 h 16 min
Bit rate mode                            : Constant
Bit rate                                 : 448 kb/s
Channel(s)                               : 6 channels
Channel positions                        : Front: L C R, Side: L R, LFE
Sampling rate                            : 48.0 kHz
Frame rate                               : 31.250 FPS (1536 SPF)
Bit depth                                : 16 bits
Compression mode                         : Lossy
Delay relative to video                  : -287 ms
Stream size                              : 630 MiB (5%)
Language                                 : English
Service kind                             : Complete Main
  
Menu
ID                                       : 4096 (0x1000)
Menu ID                                  : 1 (0x1)
Duration                                 : 3 h 16 min
List                                     : 256 (0x100) (AVC) / 257 (0x101) (AC-3, English)
Language                                 :  / English
Service name                             : CCTV1
Service provider                         : BGCTV
Service type                             : user defined

节目简介:
   元旦特别节目《相聚中国节•奋进!2019》奔赴重大国家战略地——粤港澳大湾区完成录制,取景当地标志性建筑——港珠澳大桥。节目延续《相聚中国节》系列特别节目特色,由各岗位一线职工或者各院校大学生原创完成及表演,以真情实感打动人、鼓舞人。节目进行了由嘉宾书写2019寄语的仪式设计,寄托2019再出发的希望,打造出温情仪式感,传递时代使命感,点燃集体荣誉感。


下载地址:
https://pan.baidu.com/s/1Y8V_JiqCV8GXe7K4531L0g

最新喜欢:

zyyzwyfzyyzwy...
冷月梦寒
精灵王
精灵王
  • 注册日期2017-12-18
  • 发帖数1013
  • 影币2590枚
  • 魔力值797点
  • 蓝光币166克拉
  • 社区居民
  • 最爱沙发
  • 忠实会员
沙发#
发布于:2019-01-09 20:25
谢谢楼主分享
kenlili
骑士
骑士
  • 注册日期2018-05-05
  • 发帖数17
  • 影币15枚
  • 魔力值546点
  • 蓝光币4克拉
  • 社区居民
  • 忠实会员
板凳#
发布于:2019-01-24 15:52
谢谢分享
zyyzwyf
精灵王
精灵王
  • 注册日期2017-05-17
  • 发帖数1462
  • 影币2115枚
  • 魔力值592点
  • 蓝光币765克拉
  • 社区居民
  • 忠实会员
地板#
发布于:2019-02-15 13:21
谢谢达人分享,不胜感激。
游客
返回顶部