福利发放鸡
论坛版主
论坛版主
  • 注册日期2017-03-24
  • 发帖数416
  • 影币5135枚
  • 魔力值1214点
  • 蓝光币2克拉
  • 社区居民
  • 忠实会员
  • 喜欢达人
  • 原创写手
阅读:259回复:3

[其他]《新年新世界2018-2019》.20181231.1080p.CCTV2.HDTV.H.264-FLTTH.ts 13.8G

楼主#
更多 发布于:2019-01-08 16:01

图片:SS_00037.jpg

图片:SS_00038.jpg

图片:SS_00039.jpg

图片:SS_00040.jpg

图片:SS_00041.jpg

图片:SS_00042.jpg



General
ID                                       : 1 (0x1)
Complete name                            : 新年新世界.20181231.1080p.CCTV2.HDTV.H.264-FLTTH.ts
Format                                   : MPEG-TS
File size                                : 13.8 GiB
Duration                                 : 4 h 16 min
Overall bit rate mode                    : Variable
Overall bit rate                         : 7 702 kb/s
   
Video
ID                                       : 256 (0x100)
Menu ID                                  : 1 (0x1)
Format                                   : AVC
Format/Info                              : Advanced Video Codec
Format profile                           : High@L4
Format settings                          : CABAC / 3 Ref Frames
Format settings, CABAC                   : Yes
Format settings, RefFrames               : 3 frames
Format settings, GOP                     : M=2, N=25
Codec ID                                 : 27
Duration                                 : 4 h 16 min
Bit rate mode                            : Constant
Bit rate                                 : 6 990 kb/s
Width                                    : 1 920 pixels
Height                                   : 1 080 pixels
Display aspect ratio                     : 16:9
Frame rate                               : 25.000 FPS
Color space                              : YUV
Chroma subsampling                       : 4:2:0
Bit depth                                : 8 bits
Scan type                                : Progressive
Bits/(Pixel*Frame)                       : 0.135
Stream size                              : 12.9 GiB (93%)
   
Audio
ID                                       : 257 (0x101)
Menu ID                                  : 1 (0x1)
Format                                   : MPEG Audio
Format version                           : Version 1
Format profile                           : Layer 2
Codec ID                                 : 3
Duration                                 : 4 h 16 min
Bit rate mode                            : Constant
Bit rate                                 : 128 kb/s
Channel(s)                               : 2 channels
Sampling rate                            : 48.0 kHz
Frame rate                               : 41.667 FPS (1152 SPF)
Compression mode                         : Lossy
Delay relative to video                  : -507 ms
Stream size                              : 234 MiB (2%)
   
Menu
ID                                       : 4096 (0x1000)
Menu ID                                  : 1 (0x1)
Duration                                 : 4 h 16 min
List                                     : 256 (0x100) (AVC) / 257 (0x101) (MPEG Audio)
Service name                             : CCTV2
Service provider                         : CCTV
Service type                             : digital television
节目简介:
   元旦钟声已敲响,中央广播电视总台央视财经频道2018至2019年度跨年特别节目《新年新世界》已出炉。12月31日晚20:00至次日凌晨00:15,节目组通过4小时15分钟的直播特别节目,带领观众开启一场财经跨年的欢乐之旅。创新梳理、倒序发布的两大经济榜单,遍布六大洲的跨年连线,改革开放40年成就的温馨回顾,全虚拟技术的首次运用,整台节目看点纷呈。

下载地址:
https://pan.baidu.com/s/1i82eqqha0QOIaeY2qhYhKg
yuhaer
圣骑士
圣骑士
  • 注册日期2017-04-19
  • 发帖数13
  • 影币1枚
  • 魔力值624点
  • 蓝光币3克拉
沙发#
发布于:2019-01-08 20:31
感谢分享跨年
zuozuo
精灵王
精灵王
  • 注册日期2015-09-21
  • 发帖数743
  • 影币685枚
  • 魔力值1480点
  • 蓝光币223克拉
  • 社区居民
  • 忠实会员
板凳#
发布于:2019-01-09 08:12
1111111111111
冷月梦寒
精灵王
精灵王
  • 注册日期2017-12-18
  • 发帖数725
  • 影币2139枚
  • 魔力值699点
  • 蓝光币152克拉
  • 社区居民
  • 最爱沙发
  • 忠实会员
地板#
发布于:2019-01-09 20:26
谢谢楼主分享
游客
返回顶部