福利发放鸡
论坛版主
论坛版主
  • 注册日期2017-03-24
  • 发帖数509
  • 影币7211枚
  • 魔力值1472点
  • 蓝光币2克拉
  • 社区居民
  • 忠实会员
  • 喜欢达人
  • 原创写手
阅读:548回复:3

[其他]收获2018.20181229.1080i.CCTV1.HDTV.H.264.DD5.1-FLTTH.ts 5.30G

楼主#
更多 发布于:2019-01-08 15:52

图片:SS_00031.jpg

图片:SS_00032.jpg

图片:SS_00033.jpg

图片:SS_00034.jpg

图片:SS_00035.jpg

图片:SS_00036.jpg


General
ID                                       : 1 (0x1)
Complete name                            : 收获2018.20181229.1080i.CCTV1.HDTV.H.264.DD5.1-FLTTH.ts
Format                                   : MPEG-TS
File size                                : 5.30 GiB
Duration                                 : 1 h 30 min
Overall bit rate mode                    : Variable
Overall bit rate                         : 8 414 kb/s
   
Video
ID                                       : 256 (0x100)
Menu ID                                  : 1 (0x1)
Format                                   : AVC
Format/Info                              : Advanced Video Codec
Format profile                           : High@L4
Format settings                          : CABAC / 2 Ref Frames
Format settings, CABAC                   : Yes
Format settings, RefFrames               : 2 frames
Format settings, GOP                     : M=3, N=12
Codec ID                                 : 27
Duration                                 : 1 h 30 min
Bit rate                                 : 7 546 kb/s
Width                                    : 1 920 pixels
Height                                   : 1 080 pixels
Display aspect ratio                     : 16:9
Frame rate                               : 25.000 FPS
Color space                              : YUV
Chroma subsampling                       : 4:2:0
Bit depth                                : 8 bits
Scan type                                : Interlaced
Scan type, store method                  : Separated fields
Scan order                               : Top Field First
Bits/(Pixel*Frame)                       : 0.146
Stream size                              : 4.75 GiB (90%)
   
Audio
ID                                       : 257 (0x101)
Menu ID                                  : 1 (0x1)
Format                                   : AC-3
Format/Info                              : Audio Coding 3
Codec ID                                 : 129
Duration                                 : 1 h 30 min
Bit rate mode                            : Constant
Bit rate                                 : 448 kb/s
Channel(s)                               : 6 channels
Channel positions                        : Front: L C R, Side: L R, LFE
Sampling rate                            : 48.0 kHz
Frame rate                               : 31.250 FPS (1536 SPF)
Bit depth                                : 16 bits
Compression mode                         : Lossy
Delay relative to video                  : -309 ms
Stream size                              : 289 MiB (5%)
Language                                 : English
Service kind                             : Complete Main
   
Menu
ID                                       : 4096 (0x1000)
Menu ID                                  : 1 (0x1)
Duration                                 : 1 h 30 min
List                                     : 256 (0x100) (AVC) / 257 (0x101) (AC-3, English)
Language                                 :  / English
Service name                             : CCTV1
Service provider                         : BGCTV
Service type                             : user defined


节目介绍:
    从回顾中感受收获的喜悦,在总结中汲取前行的力量。由中央广播电视总台央视综艺频道匠心打造的年终特别节目《收获2018》于12月29日晚播出,与您一起梳理记忆,共话收获。
    作为央视综艺的品牌节目,《收获》系列已经延续了8年之久,成为很多人在年终岁末不可缺少的一道文化大餐。今年的《收获2018》很特别,节目将采用新颖又有深度的访谈形式,邀请2018年度优秀文艺作品、文艺事件中的7组代表人物来到现场,以讲述、盘点的方式来回望文化热点问题,将个体“代入”文艺发展中去,回望属于2018年的文化魅力,把握时代的文化脉搏。
    本次节目以2018年文化艺术界展现出的“新气象、新作为、新高度”为内在脉络,邀请了诸多与2018年度文艺作品和文化事件相关的文艺名家来到现场,共同梳理2018年的度文化记忆。他们当中既有家喻户晓的艺术家,也有活跃在荧屏上的文化学者,还有辛勤耕耘在文艺一线的工作者。如故宫博物院院长单霁翔、青年歌唱家雷佳、中国文艺志愿者协会副主席殷秀梅、中国文艺志愿者协会副主席林永健、中央美术学院院长范迪安、北京电影学院表演系教授马精武、中国舞蹈家协会主席冯双白、男高音歌唱家莫华伦、北京大学中文系教授张颐武、北京人民艺术剧院演员冯远征、著名油画家詹建俊、著名美术评论家邵大箴等。
    值得一提的是,除现场嘉宾之外,节目组还通过外拍的方式对冯骥才、马识途、林超贤、吴为山、尚长荣、毕淑敏、阿来、蒋雯丽、黄豆豆、郎朗、王珮瑜、杨紫、王俊凯等众多艺术家、文艺工作者进行了一个关于“2018收获”的年度访问,通过短片的形式与观众分享他们的收获以及他们的所思、所想、所感。
    节目透过不同文艺工作者“讲故事”式的叙述,与观众共同聆听真实的故事和情感,探寻文艺作品背后的精神源头其中,故宫博物院院长单霁翔在访谈中坦言故宫博物院院长是个“高危岗位”,并用一组组数字串起了2018年故宫的创新举措,这些让国宝“活起来”的努力,正是为了将焕发青春的故宫完整地交给下一个六百年。2018年,是我国改革开放40周年。40年来,我国文化艺术领域硕果累累,北京电影学院表演系教授马精武、中国舞蹈家协会主席冯双白、男高音歌唱家莫华伦、北京大学中文系教授张颐武、北京人民艺术剧院演员冯远征从不同的艺术领域畅谈了他们40年眼中的变化;电视剧《最美的青春》将塞罕坝精神再次呈现在世人眼前,书写了当代中国的“青春之歌”。对于其监制、总编剧郭靖宇而言,最大的收获是一份独特的创作经历和再一次经历“青春”的感动;十几年来坚持到山区采风的雷佳,通过采访、整理、改编、创新民歌,将传统民歌唱出与新时代呼应的风貌,让大众重新发现民歌的美。
    此外,为凸显“收获”的主题,节目组特别邀请雷佳、郭峰、平安、舒楠等嘉宾演唱了新创作的歌曲,彰显新时代文艺工作者砥砺奋进、勇攀高峰的精神风貌,呈现2018年文化艺术领域的丰硕收获与成绩。



下载地址:
https://pan.baidu.com/s/1ZVgKNlGFdNshLD_27cbHNA

最新喜欢:

zyyzwyfzyyzwy...
zxcv2222
精灵王
精灵王
  • 注册日期2016-09-18
  • 发帖数682
  • 影币3273枚
  • 魔力值1633点
  • 蓝光币142克拉
  • 社区居民
  • 忠实会员
沙发#
发布于:2019-01-08 21:38
谢谢楼主的分享
冷月梦寒
精灵王
精灵王
  • 注册日期2017-12-18
  • 发帖数1347
  • 影币3364枚
  • 魔力值971点
  • 蓝光币159克拉
  • 社区居民
  • 最爱沙发
  • 忠实会员
板凳#
发布于:2019-01-09 20:27
谢谢楼主分享
weibo00000
骑士
骑士
  • 注册日期2016-08-05
  • 发帖数51
  • 影币37枚
  • 魔力值298点
  • 蓝光币6克拉
  • 社区居民
  • 忠实会员
地板#
发布于:2019-01-12 22:28
谢谢楼主分享。。。。。
游客
返回顶部