福利发放鸡
论坛版主
论坛版主
  • 注册日期2017-03-24
  • 发帖数455
  • 影币6297枚
  • 魔力值1296点
  • 蓝光币2克拉
  • 社区居民
  • 忠实会员
  • 喜欢达人
  • 原创写手
阅读:625回复:4

[其他]《启航2019——中国音乐盛典》.20181231.1080i.CCTV3.HDTV.H.264.DD5.1-FLTTH.ts 14.8G

楼主#
更多 发布于:2019-01-08 15:11

图片:SS_00025.jpg

图片:SS_00026.jpg

图片:SS_00027.jpg

图片:SS_00028.jpg

图片:SS_00029.jpg

图片:SS_00030.jpg





General
ID                                       : 1 (0x1)
Complete name                            : 启航2019.20181231.1080i.CCTV3.HDTV.H.264.DD5.1-FLTTH.ts
Format                                   : MPEG-TS
File size                                : 14.8 GiB
Duration                                 : 3 h 56 min
Overall bit rate mode                    : Variable
Overall bit rate                         : 8 952 kb/s
  
Video
ID                                       : 256 (0x100)
Menu ID                                  : 1 (0x1)
Format                                   : AVC
Format/Info                              : Advanced Video Codec
Format profile                           : High@L4
Format settings                          : CABAC / 3 Ref Frames
Format settings, CABAC                   : Yes
Format settings, RefFrames               : 3 frames
Format settings, GOP                     : M=3, N=15
Codec ID                                 : 27
Duration                                 : 3 h 56 min
Bit rate mode                            : Constant
Bit rate                                 : 7 800 kb/s
Width                                    : 1 920 pixels
Height                                   : 1 080 pixels
Display aspect ratio                     : 16:9
Frame rate                               : 25.000 FPS
Color space                              : YUV
Chroma subsampling                       : 4:2:0
Bit depth                                : 8 bits
Scan type                                : Interlaced
Scan type, store method                  : Separated fields
Scan order                               : Top Field First
Bits/(Pixel*Frame)                       : 0.150
Stream size                              : 13.3 GiB (90%)
Color range                              : Limited
Color primaries                          : BT.709
Transfer characteristics                 : BT.709
Matrix coefficients                      : BT.709
  
Audio
ID                                       : 257 (0x101)
Menu ID                                  : 1 (0x1)
Format                                   : AC-3
Format/Info                              : Audio Coding 3
Codec ID                                 : 129
Duration                                 : 3 h 56 min
Bit rate mode                            : Constant
Bit rate                                 : 448 kb/s
Channel(s)                               : 6 channels
Channel positions                        : Front: L C R, Side: L R, LFE
Sampling rate                            : 48.0 kHz
Frame rate                               : 31.250 FPS (1536 SPF)
Bit depth                                : 16 bits
Compression mode                         : Lossy
Delay relative to video                  : -471 ms
Stream size                              : 757 MiB (5%)
Language                                 : English
Service kind                             : Complete Main
  
Menu
ID                                       : 4096 (0x1000)
Menu ID                                  : 1 (0x1)
Duration                                 : 3 h 56 min
List                                     : 256 (0x100) (AVC) / 257 (0x101) (AC-3, English)
Language                                 :  / English
Service name                             : CCTV3
Service provider                         : BGCTV
Service type                             : user defined



节目简介:
    《启航2019——中国音乐盛典》大型跨年音乐盛典是中央广播电视总台成立后的首场重要跨年活动。盛典共分4个乐章,分别为《欢乐颂》、《丰收歌》、《奋进曲》和《春之声》。众多耳熟能详的歌曲,观众喜爱的歌唱家、知名歌手、老艺术家都将在盛典中亮相。



下载地址:
https://pan.baidu.com/s/1-SI6oCsuBha6Ae5QcLMiuw

最新喜欢:

zyyzwyfzyyzwy...
冷月梦寒
精灵王
精灵王
  • 注册日期2017-12-18
  • 发帖数1013
  • 影币2590枚
  • 魔力值797点
  • 蓝光币166克拉
  • 社区居民
  • 最爱沙发
  • 忠实会员
沙发#
发布于:2019-01-09 20:27
谢谢楼主分享
某些人
精灵王
精灵王
  • 注册日期2016-12-31
  • 发帖数289
  • 影币306枚
  • 魔力值1277点
  • 蓝光币13克拉
  • 社区居民
  • 忠实会员
板凳#
发布于:2019-01-11 10:29
多谢楼主分享。
long34522180
骑士
骑士
  • 注册日期2017-06-30
  • 发帖数241
  • 影币220枚
  • 魔力值176点
  • 蓝光币185克拉
地板#
发布于:2019-01-12 19:29
《启航2019——中国音乐盛典》大型跨年音乐盛典是中央广播电视总台成立后的首场重要跨年活动。盛典共分4个乐章,分别为《欢乐颂》、《丰收歌》、《奋进曲》和《春之声》。众多耳熟能详的歌曲,观众喜爱的歌唱家、知名歌手、老艺术家都将在盛典中亮相。
zyyzwyf
精灵王
精灵王
  • 注册日期2017-05-17
  • 发帖数1462
  • 影币2115枚
  • 魔力值592点
  • 蓝光币765克拉
  • 社区居民
  • 忠实会员
4楼#
发布于:2019-02-16 11:46
谢谢楼主分享好资源。
游客
返回顶部