福利发放鸡
论坛版主
论坛版主
  • 注册日期2017-03-24
  • 发帖数416
  • 影币5135枚
  • 魔力值1214点
  • 蓝光币2克拉
  • 社区居民
  • 忠实会员
  • 喜欢达人
  • 原创写手
阅读:250回复:4

[其他]《梦圆东方·2019东方卫视跨年盛典》.20181231.REPEAT.1080i.DRAGON.HDTV.H.264.DD5.1-FLTTH.ts 12.8G

楼主#
更多 发布于:2019-01-08 15:03

图片:SS_00019.jpg

图片:SS_00020.jpg

图片:SS_00021.jpg

图片:SS_00022.jpg

图片:SS_00023.jpg

图片:SS_00024.jpg



General
ID                                       : 1 (0x1)
Complete name                            : 梦圆东方.20181231.REPEAT.1080i.DRAGON.HDTV.H.264.DD5.1-FLTTH.ts
Format                                   : MPEG-TS
File size                                : 12.8 GiB
Duration                                 : 4 h 10 min
Overall bit rate mode                    : Variable
Overall bit rate                         : 7 319 kb/s
 
Video
ID                                       : 256 (0x100)
Menu ID                                  : 1 (0x1)
Format                                   : AVC
Format/Info                              : Advanced Video Codec
Format profile                           : High@L4
Format settings                          : CABAC / 2 Ref Frames
Format settings, CABAC                   : Yes
Format settings, RefFrames               : 2 frames
Format settings, GOP                     : M=3, N=12
Codec ID                                 : 27
Duration                                 : 4 h 10 min
Bit rate                                 : 6 311 kb/s
Width                                    : 1 920 pixels
Height                                   : 1 080 pixels
Display aspect ratio                     : 16:9
Frame rate                               : 25.000 FPS
Color space                              : YUV
Chroma subsampling                       : 4:2:0
Bit depth                                : 8 bits
Scan type                                : Interlaced
Scan type, store method                  : Separated fields
Scan order                               : Top Field First
Bits/(Pixel*Frame)                       : 0.122
Stream size                              : 11.0 GiB (86%)
 
Audio
ID                                       : 257 (0x101)
Menu ID                                  : 1 (0x1)
Format                                   : AC-3
Format/Info                              : Audio Coding 3
Codec ID                                 : 129
Duration                                 : 4 h 10 min
Bit rate mode                            : Constant
Bit rate                                 : 640 kb/s
Channel(s)                               : 6 channels
Channel positions                        : Front: L C R, Side: L R, LFE
Sampling rate                            : 48.0 kHz
Frame rate                               : 31.250 FPS (1536 SPF)
Bit depth                                : 16 bits
Compression mode                         : Lossy
Delay relative to video                  : -356 ms
Stream size                              : 1.12 GiB (9%)
Language                                 : English
Service kind                             : Complete Main
 
Menu
ID                                       : 4096 (0x1000)
Menu ID                                  : 1 (0x1)
Duration                                 : 4 h 10 min
List                                     : 256 (0x100) (AVC) / 257 (0x101) (AC-3, English)
Language                                 :  / English
Service name                             : DRAGON TV
Service provider                         : BGCTV
Service type                             : user defined



节目介绍:
    发布的口吻满是温情——每当新年喧嚣再次敲响窗棂,朋友相聚阖家举杯之时,又怎么能少了一场欢乐与激情,回忆和展望的跨年盛典。它应当有不容错过的明星阵容、有极致享受的舞台 视觉盛宴,有对新年的所有热烈期盼。它是踮脚眺望未来时的温暖鼓励,更是对过去一年辛苦奋斗的慰藉与回顾。她,是一直陪伴你的《梦圆东方·2019东方卫视跨年盛典》。更重要的是 ,2019年,她,爱你依旧,爱你19。
    作为东方卫视每年跨年之际都会推出的荧屏迎新品牌,《梦圆东方——东方卫视跨年盛典》多年来坚持唱响主旋律、传递正能量,大力弘扬社会主义核心价值观。为祝福改革开放40年,喜迎国庆70年、上海解放70年,本届跨年盛典新引入“星使、星语、星礼”主题,献礼时代,将重点聚焦于对于观众、生活、梦想、祖国与未来的挚爱表达。跨年的喜悦与时代的焦点交织,节目将着力于社会热点与家国变迁,传递积极人生追求、带来思想性艺术性观赏性相统一的视听作品。除了明星大腕,更邀请到了世博会志愿者、社会各界基层工作者等,在新年的氛围中,全民欢庆互动,星素共同祝愿美好未来。
    此外,作为一直贯彻正能量公益的东方卫视,还将坚守信念,以“爱”为核心主题,每位明星都将化身“梦想大使” 为爱而来,为爱发声。
    从“爱生活”、“爱健康”、“爱家庭”、“爱事业”、“爱时光”等人间小爱,到“爱祖国”、“爱时代”等人间大爱,盛典加盟的年轻明星们将“老歌新唱“,让创新与回忆交融,前后辈的跨界搭配组合,为大家带来包括充满爱国情怀的《我和我的祖国》、改革开放40年金曲串烧、上海女儿歌声祝福上海等节目,展现他们不一样的深情与家国情怀。



下载地址(重播版):
https://pan.baidu.com/s/1Ibr1rRuxLn7bLwgbv7TqvA
zuozuo
精灵王
精灵王
  • 注册日期2015-09-21
  • 发帖数743
  • 影币685枚
  • 魔力值1480点
  • 蓝光币223克拉
  • 社区居民
  • 忠实会员
沙发#
发布于:2019-01-09 08:11
11111111111111
冷月梦寒
精灵王
精灵王
  • 注册日期2017-12-18
  • 发帖数725
  • 影币2139枚
  • 魔力值699点
  • 蓝光币152克拉
  • 社区居民
  • 最爱沙发
  • 忠实会员
板凳#
发布于:2019-01-09 20:27
谢谢楼主分享
某些人
精灵王
精灵王
  • 注册日期2016-12-31
  • 发帖数276
  • 影币293枚
  • 魔力值1170点
  • 蓝光币8克拉
  • 社区居民
  • 忠实会员
地板#
发布于:2019-01-11 10:29
多谢楼主分享。
ldhaihui
圣骑士
圣骑士
  • 注册日期2017-02-18
  • 发帖数191
  • 影币146枚
  • 魔力值442点
  • 蓝光币56克拉
  • 社区居民
  • 忠实会员
4楼#
发布于:2019-01-13 12:16
感谢分享,不错哦。
游客
返回顶部