福利发放鸡
论坛版主
论坛版主
  • 注册日期2017-03-24
  • 发帖数509
  • 影币7211枚
  • 魔力值1472点
  • 蓝光币2克拉
  • 社区居民
  • 忠实会员
  • 喜欢达人
  • 原创写手
阅读:813回复:2

[其他]《记住乡愁》第五季开播特别节目 记住乡愁.20190101.1080i.CCTV3.HDTV.H.264.DD5.1-FLTTH.ts 5.47G

楼主#
更多 发布于:2019-01-08 14:47

图片:SS_00013.jpg

图片:SS_00014.jpg

图片:SS_00015.jpg

图片:SS_00016.jpg

图片:SS_00017.jpg

图片:SS_00018.jpg



General
ID                                       : 1 (0x1)
Complete name                            : 记住乡愁.20190101.1080i.CCTV3.HDTV.H.264.DD5.1-FLTTH.ts
Format                                   : MPEG-TS
File size                                : 5.47 GiB
Duration                                 : 1 h 27 min
Overall bit rate mode                    : Variable
Overall bit rate                         : 8 953 kb/s
    
Video
ID                                       : 256 (0x100)
Menu ID                                  : 1 (0x1)
Format                                   : AVC
Format/Info                              : Advanced Video Codec
Format profile                           : High@L4
Format settings                          : CABAC / 3 Ref Frames
Format settings, CABAC                   : Yes
Format settings, RefFrames               : 3 frames
Format settings, GOP                     : M=3, N=15
Codec ID                                 : 27
Duration                                 : 1 h 27 min
Bit rate mode                            : Constant
Bit rate                                 : 7 800 kb/s
Width                                    : 1 920 pixels
Height                                   : 1 080 pixels
Display aspect ratio                     : 16:9
Frame rate                               : 25.000 FPS
Color space                              : YUV
Chroma subsampling                       : 4:2:0
Bit depth                                : 8 bits
Scan type                                : Interlaced
Scan type, store method                  : Separated fields
Scan order                               : Top Field First
Bits/(Pixel*Frame)                       : 0.150
Stream size                              : 4.93 GiB (90%)
Color range                              : Limited
Color primaries                          : BT.709
Transfer characteristics                 : BT.709
Matrix coefficients                      : BT.709
    
Audio
ID                                       : 257 (0x101)
Menu ID                                  : 1 (0x1)
Format                                   : AC-3
Format/Info                              : Audio Coding 3
Codec ID                                 : 129
Duration                                 : 1 h 27 min
Bit rate mode                            : Constant
Bit rate                                 : 448 kb/s
Channel(s)                               : 6 channels
Channel positions                        : Front: L C R, Side: L R, LFE
Sampling rate                            : 48.0 kHz
Frame rate                               : 31.250 FPS (1536 SPF)
Bit depth                                : 16 bits
Compression mode                         : Lossy
Delay relative to video                  : -515 ms
Stream size                              : 280 MiB (5%)
Language                                 : English
Service kind                             : Complete Main
    
Menu
ID                                       : 4096 (0x1000)
Menu ID                                  : 1 (0x1)
Duration                                 : 1 h 27 min
List                                     : 256 (0x100) (AVC) / 257 (0x101) (AC-3, English)
Language                                 :  / English
Service name                             : CCTV3
Service provider                         : BGCTV
Service type                             : user defined

节目简介:
    2019年元旦,中央广播电视总台“大型纪录片《记住乡愁》第五季开播特别节目”在央视中文国际频道、综合频道、综艺频道播出。精心打造的开播特别节目,用丰富的表现形式,浓缩了传承千年的故土乡情,唱响了新时代的拳拳乡愁。晚会洋溢着温暖与感动、幸福与憧憬、豪迈与激情,艺术地诠释了中国人独有的乡愁内涵。
    《记住乡愁》第五季开播特别节目以“文脉”、“情怀”、“熏陶”为篇章,展现中国传统意蕴之美、丰厚的文化底蕴与浓郁的家国情怀。众多知名艺术家倾情参与,演绎出对故乡的思念,致敬中华优秀传统文化。



下载地址:
https://pan.baidu.com/s/1RVQiclnz2uK7CZweOWTUdA
冷月梦寒
精灵王
精灵王
  • 注册日期2017-12-18
  • 发帖数1347
  • 影币3364枚
  • 魔力值971点
  • 蓝光币159克拉
  • 社区居民
  • 最爱沙发
  • 忠实会员
沙发#
发布于:2019-01-09 20:28
谢谢楼主分享
chengxuming1967
骑士
骑士
  • 注册日期2018-07-29
  • 发帖数255
  • 影币175枚
  • 魔力值92点
  • 蓝光币9克拉
板凳#
发布于:2019-01-23 20:29
感谢楼主分享
游客
返回顶部