福利发放鸡
论坛版主
论坛版主
  • 注册日期2017-03-24
  • 发帖数455
  • 影币6297枚
  • 魔力值1296点
  • 蓝光币2克拉
  • 社区居民
  • 忠实会员
  • 喜欢达人
  • 原创写手
阅读:693回复:9

[其他]柏林爱乐乐团新年音乐会 2019新年音乐之夜.20190101.1080i.DRAGON.HDTV.H.264.DD5.1-FLTTH.ts 4.94G

楼主#
更多 发布于:2019-01-08 14:35

图片:SS_00007.jpg

图片:SS_00008.jpg

图片:SS_00009.jpg

图片:SS_00010.jpg

图片:SS_00011.jpg

图片:SS_00012.jpg



General
ID                                       : 1 (0x1)
Complete name                            : 2019新年音乐之夜.20190101.1080i.DRAGON.HDTV.H.264.DD5.1-FLTTH.ts
Format                                   : MPEG-TS
File size                                : 4.94 GiB
Duration                                 : 1 h 36 min
Overall bit rate mode                    : Variable
Overall bit rate                         : 7 319 kb/s
   
Video
ID                                       : 256 (0x100)
Menu ID                                  : 1 (0x1)
Format                                   : AVC
Format/Info                              : Advanced Video Codec
Format profile                           : High@L4
Format settings                          : CABAC / 2 Ref Frames
Format settings, CABAC                   : Yes
Format settings, RefFrames               : 2 frames
Format settings, GOP                     : M=3, N=12
Codec ID                                 : 27
Duration                                 : 1 h 36 min
Bit rate                                 : 6 311 kb/s
Width                                    : 1 920 pixels
Height                                   : 1 080 pixels
Display aspect ratio                     : 16:9
Frame rate                               : 25.000 FPS
Color space                              : YUV
Chroma subsampling                       : 4:2:0
Bit depth                                : 8 bits
Scan type                                : Interlaced
Scan type, store method                  : Separated fields
Scan order                               : Top Field First
Bits/(Pixel*Frame)                       : 0.122
Stream size                              : 4.26 GiB (86%)
   
Audio
ID                                       : 257 (0x101)
Menu ID                                  : 1 (0x1)
Format                                   : AC-3
Format/Info                              : Audio Coding 3
Codec ID                                 : 129
Duration                                 : 1 h 36 min
Bit rate mode                            : Constant
Bit rate                                 : 640 kb/s
Channel(s)                               : 6 channels
Channel positions                        : Front: L C R, Side: L R, LFE
Sampling rate                            : 48.0 kHz
Frame rate                               : 31.250 FPS (1536 SPF)
Bit depth                                : 16 bits
Compression mode                         : Lossy
Delay relative to video                  : -292 ms
Stream size                              : 442 MiB (9%)
Language                                 : English
Service kind                             : Complete Main
   
Menu
ID                                       : 4096 (0x1000)
Menu ID                                  : 1 (0x1)
Duration                                 : 1 h 36 min
List                                     : 256 (0x100) (AVC) / 257 (0x101) (AC-3, English)
Language                                 :  / English
Service name                             : DRAGON TV
Service provider                         : BGCTV
Service type                             : user defined

节目简介:
    2019年柏林爱乐乐团新年音乐会。
    今年举世瞩目的柏林新年音乐会由指挥家、钢琴家丹尼尔·巴伦博伊姆执棒。1964年6月12日,当年仅21岁的巴伦博伊姆第一次以独奏家的身份与柏林爱乐乐团合作演奏贝拉·巴托克的《第一钢琴协奏曲》时,他正处在职业生涯的起步阶段。从那场轰动性的处子秀开始,这位音乐家与柏林爱乐乐团建立了长期的艺术合作关系。


下载地址:

https://pan.baidu.com/s/1Knp4rsYDNSOJmMFImVdNxg

最新喜欢:

zyyzwyfzyyzwy...
烟波浩渺310
圣骑士
圣骑士
  • 注册日期2017-09-16
  • 发帖数100
  • 影币14枚
  • 魔力值727点
  • 蓝光币7克拉
  • 社区居民
  • 忠实会员
沙发#
发布于:2019-01-08 17:30
感谢分享资源!!!
houuan
精灵王
精灵王
  • 注册日期2016-02-23
  • 发帖数110
  • 影币3530枚
  • 魔力值1858点
  • 蓝光币0克拉
  • 社区居民
  • 忠实会员
板凳#
发布于:2019-01-08 21:57
谢谢老大,新年新气象!
蓝宇mqw
骑士
骑士
  • 注册日期2016-11-27
  • 发帖数84
  • 影币26枚
  • 魔力值379点
  • 蓝光币0克拉
地板#
发布于:2019-01-09 12:36
好想看一看。
冷月梦寒
精灵王
精灵王
  • 注册日期2017-12-18
  • 发帖数1013
  • 影币2590枚
  • 魔力值797点
  • 蓝光币166克拉
  • 社区居民
  • 最爱沙发
  • 忠实会员
4楼#
发布于:2019-01-09 20:29
谢谢楼主分享
charles0424
精灵王
精灵王
  • 注册日期2016-02-17
  • 发帖数606
  • 影币341枚
  • 魔力值645点
  • 蓝光币34克拉
  • 社区居民
  • 忠实会员
5楼#
发布于:2019-01-10 19:59
感谢分享
某些人
精灵王
精灵王
  • 注册日期2016-12-31
  • 发帖数289
  • 影币306枚
  • 魔力值1277点
  • 蓝光币13克拉
  • 社区居民
  • 忠实会员
6楼#
发布于:2019-01-11 10:29
多谢楼主分享。
烟波浩渺310
圣骑士
圣骑士
  • 注册日期2017-09-16
  • 发帖数100
  • 影币14枚
  • 魔力值727点
  • 蓝光币7克拉
  • 社区居民
  • 忠实会员
7楼#
发布于:2019-01-19 07:09
谢谢楼主分享
kenlili
骑士
骑士
  • 注册日期2018-05-05
  • 发帖数17
  • 影币15枚
  • 魔力值546点
  • 蓝光币4克拉
  • 社区居民
  • 忠实会员
8楼#
发布于:2019-01-24 15:54
谢谢分享
zyyzwyf
精灵王
精灵王
  • 注册日期2017-05-17
  • 发帖数1462
  • 影币2115枚
  • 魔力值592点
  • 蓝光币765克拉
  • 社区居民
  • 忠实会员
9楼#
发布于:2019-02-15 13:29
珍贵资源,谢谢达人分享。
游客
返回顶部