福利发放鸡
论坛版主
论坛版主
  • 注册日期2017-03-24
  • 发帖数509
  • 影币7211枚
  • 魔力值1472点
  • 蓝光币2克拉
  • 社区居民
  • 忠实会员
  • 喜欢达人
  • 原创写手
阅读:436回复:3

[其他]2019“招商银行杯”东方明珠元旦登高健康跑 爱满东方.明珠汇聚.20190101.1080i.DRAGON.HDTV.H.264.DD5.1-FLTTH.ts 3.10G

楼主#
更多 发布于:2019-01-08 14:26

图片:SS_00001.jpg

图片:SS_00002.jpg

图片:SS_00003.jpg

图片:SS_00005.jpg

图片:SS_00006.jpg

图片:SS_00004.jpg

General
ID                                       : 1 (0x1)
Complete name                            : 爱满东方.明珠汇聚.20190101.1080i.DRAGON.HDTV.H.264.DD5.1-FLTTH.ts
Format                                   : MPEG-TS
File size                                : 3.10 GiB
Duration                                 : 1 h 0 min
Overall bit rate mode                    : Variable
Overall bit rate                         : 7 319 kb/s
 
Video
ID                                       : 256 (0x100)
Menu ID                                  : 1 (0x1)
Format                                   : AVC
Format/Info                              : Advanced Video Codec
Format profile                           : High@L4
Format settings                          : CABAC / 2 Ref Frames
Format settings, CABAC                   : Yes
Format settings, RefFrames               : 2 frames
Format settings, GOP                     : M=3, N=12
Codec ID                                 : 27
Duration                                 : 1 h 0 min
Bit rate                                 : 6 311 kb/s
Width                                    : 1 920 pixels
Height                                   : 1 080 pixels
Display aspect ratio                     : 16:9
Frame rate                               : 25.000 FPS
Color space                              : YUV
Chroma subsampling                       : 4:2:0
Bit depth                                : 8 bits
Scan type                                : Interlaced
Scan type, store method                  : Separated fields
Scan order                               : Top Field First
Bits/(Pixel*Frame)                       : 0.122
Stream size                              : 2.67 GiB (86%)
 
Audio
ID                                       : 257 (0x101)
Menu ID                                  : 1 (0x1)
Format                                   : AC-3
Format/Info                              : Audio Coding 3
Codec ID                                 : 129
Duration                                 : 1 h 0 min
Bit rate mode                            : Constant
Bit rate                                 : 640 kb/s
Channel(s)                               : 6 channels
Channel positions                        : Front: L C R, Side: L R, LFE
Sampling rate                            : 48.0 kHz
Frame rate                               : 31.250 FPS (1536 SPF)
Bit depth                                : 16 bits
Compression mode                         : Lossy
Delay relative to video                  : -388 ms
Stream size                              : 278 MiB (9%)
Language                                 : English
Service kind                             : Complete Main
 
Menu
ID                                       : 4096 (0x1000)
Menu ID                                  : 1 (0x1)
Duration                                 : 1 h 0 min
List                                     : 256 (0x100) (AVC) / 257 (0x101) (AC-3, English)
Language                                 :  / English
Service name                             : DRAGON TV
Service provider                         : BGCTV
Service type                             : user defined



节目介绍:
    连续举行二十四年的上海市民东方明珠元旦登高健康跑活动,2019年1月1日上午9:00在东方明珠城市广场举行。
    由上海市体育局、上海市文化和旅游局、上海广播电视台主办;招商银行、东方卫视中心、五星体育、东方明珠新媒体股份有限公司承办的2019年上海市民东方明珠元旦登高健康跑活动以“爱满东方·明珠汇聚”为主题,以“新时代、新气象、新作为”为主线,通过本次活动进一步展现广大上海市民参与全民健身,追求美好生活的激情。
    来自社会各界的一千多名登高选手,分成不同组别在上海东方明珠塔下参加元旦登高迎新年活动。本次登高健康跑将采用现场实时数据统计系统,每位参加比赛的选手都会通过一个专属芯片用来实时记录自己的登高成绩,城市广场上的大屏幕也将同步显示选手登高进程。今年的“‘招商银行杯’东方明珠元旦登高健康跑”活动作为新年首档东方卫视直播节目,在大力弘扬全民健身、永攀高峰精神的同时,继续将“爱满东方·明珠汇聚”的公益主题贯穿始终,旨在将爱汇聚在明珠脚下,倡导全民健身,享受健康生活。
    本次活动亮点是健康公益,上海东方明珠塔一直持续关爱儿童公益事业,现场捐赠款项给上海市儿童健康基金会“东方明珠特困家庭患儿帮困救助”专项,为特困家庭病患儿童提供医疗帮困救助,促进本市儿童健康事业的发展,并以此来强化“爱满东方·明珠汇聚”的公益品牌。
    本次登高健康跑依旧秉持中华文化中新年登高的传统,以“新年登高步步高”的美好寓意许下新年祝愿,成为上海每年元旦传统的全民健身运动项目以及倡导健康生活的传统节目。东方明珠塔以爱与欢乐、运动与健康为主题,承载着“传播城市文化,打造城市品牌”的使命;作为文化娱乐旅游综合体,正在将这座城市时尚文化地标变成上海的  “城市客厅”,变成城市人群喜爱并习惯的休闲、购物、朋友聚会的好去处。



下载地址:
https://pan.baidu.com/s/1UmHiigMAEh73_Rj1WJiMbw

最新喜欢:

zyyzwyfzyyzwy...
zuozuo
精灵王
精灵王
  • 注册日期2015-09-21
  • 发帖数881
  • 影币785枚
  • 魔力值1763点
  • 蓝光币231克拉
  • 社区居民
  • 忠实会员
沙发#
发布于:2019-01-09 08:11
222222222222
冷月梦寒
精灵王
精灵王
  • 注册日期2017-12-18
  • 发帖数1347
  • 影币3364枚
  • 魔力值971点
  • 蓝光币159克拉
  • 社区居民
  • 最爱沙发
  • 忠实会员
板凳#
发布于:2019-01-09 20:29
谢谢楼主分享
zyyzwyf
精灵王
精灵王
  • 注册日期2017-05-17
  • 发帖数1523
  • 影币2305枚
  • 魔力值715点
  • 蓝光币769克拉
  • 社区居民
  • 忠实会员
地板#
发布于:2019-03-02 07:05
感谢分享,感谢楼主!支持论坛!
游客
返回顶部