smy
smy
总版主
总版主
  • 注册日期2015-07-27
  • 发帖数1460
  • 影币81009枚
  • 魔力值2539点
  • 蓝光币3克拉
  • 社区居民
  • 忠实会员
  • 喜欢达人
  • 原创写手
阅读:6813回复:189

[SeeHD原创首发]无双/無雙 Project Gutenberg 2018 4K 2160p WEB-DL x264 AAC-SmY 6.50G

楼主#
更多 发布于:2018-12-21 00:53



◎译  名 无双 / Mo seung / Project Gutenberg
◎片  名 無雙
◎年  代 2018
◎产  地 中国大陆 / 香港
◎类  别 剧情 / 动作 / 犯罪
◎语  言 汉语普通话 / 粤语 / 英语 / 泰语 / 波兰语
◎上映日期 2018-09-30(中国大陆) / 2018-10-04(香港)
◎IMDb评分 7.3/10 from 773 users
◎IMDb链接 http://www.imdb.com/title/tt7183578
◎豆瓣评分 8.2/10 from 273380 users
◎豆瓣链接 https://movie.douban.com/subject/26425063/
◎片  长 130分钟
◎导  演 庄文强 Felix Chong
◎编  剧 庄文强 Felix Chong
◎主  演 周润发 Yun-Fat Chow
郭富城 Aaron Kwok
张静初 Jingchu Zhang
冯文娟 Wenjuan Feng
廖启智 Kai Chi Liu
周家怡 Catherine Chau
王耀庆 David Wang
方中信 Alex Fong
高捷 Jack Kao
邢佳栋 Jiadong Xing
张松枝 Deno Cheung
张建声 Justin Cheung
吴嘉龙 Carl Wu
孙佳君 Paulyn Sun








◎简  介  


《无双》讲述了以代号“画家”(周润发 饰)为首的犯罪团伙,掌握了制造伪钞技术,难辨真伪,并在全球进行交易获取利益,引起警方高度重视。然而“画家”和其他成员的身份一直成谜,警方的破案进度遭受到了前所未有的挑战。在关键时刻,擅长绘画的李问(郭富城 饰)打开了破案的突破口,而“画家”的真实身份却让众人意想不到……
General
Format                         : MPEG-4
Format profile                 : Base Media
Codec ID                       : isom
File size                      : 6.50 GiB
Duration                       : 2h 9mn
Overall bit rate               : 7 178 Kbps
Writing application            : Lavf57.41.100

Video
ID                             : 1
Format                         : AVC
Format/Info                    : Advanced Video Codec
Format profile                 : High@L5.1
Format settings, CABAC         : Yes
Format settings, ReFrames      : 3 frames
Codec ID                       : avc1
Codec ID/Info                  : Advanced Video Coding
Duration                       : 2h 9mn
Bit rate                       : 7 108 Kbps
Width                          : 3 840 pixels
Height                         : 1 608 pixels
Display aspect ratio           : 2.40:1
Frame rate mode                : Variable
Frame rate                     : 24.000 fps
Minimum frame rate             : 23.810 fps
Maximum frame rate             : 24.390 fps
Color space                    : YUV
Chroma subsampling             : 4:2:0
Bit depth                      : 8 bits
Scan type                      : Progressive
Bits/(Pixel*Frame)             : 0.048
Stream size                    : 6.44 GiB (99%)
Color range                    : Limited
Color primaries                : BT.709
Transfer characteristics       : BT.709
Matrix coefficients            : BT.709

Audio
ID                             : 2
Format                         : AAC
Format/Info                    : Advanced Audio Codec
Format profile                 : HE-AAC / LC
Codec ID                       : 40
Duration                       : 2h 9mn
Bit rate mode                  : Constant
Bit rate                       : 63.0 Kbps
Channel(s)                     : 2 channels
Channel positions              : Front: L R
Sampling rate                  : 44.1 KHz / 22.05 KHz
Compression mode               : Lossy
Stream size                    : 58.4 MiB (1%)


Project Gutenberg 2018 4K 2160p WEB-DL x264 AAC-SmY_(SeeHD.So).torrent
lonely0909
圣骑士
圣骑士
  • 注册日期2018-04-23
  • 发帖数251
  • 影币283枚
  • 魔力值504点
  • 蓝光币196克拉
  • 社区居民
  • 忠实会员
沙发#
发布于:2018-12-21 01:01
哇,我是第一个呀。。。好片必须顶!
gentltouch
精灵王
精灵王
  • 注册日期2016-11-19
  • 发帖数37
  • 影币46枚
  • 魔力值1178点
  • 蓝光币32克拉
  • 社区居民
  • 忠实会员
板凳#
发布于:2018-12-21 02:02
终于来啦!!!!
pop001
精灵王
精灵王
  • 注册日期2015-07-28
  • 发帖数25
  • 影币4423枚
  • 魔力值2191点
  • 蓝光币16克拉
  • 社区居民
  • 忠实会员
地板#
发布于:2018-12-21 02:21
非常感谢分享
rickysen
精灵王
精灵王
  • 注册日期2017-10-31
  • 发帖数604
  • 影币471枚
  • 魔力值796点
  • 蓝光币146克拉
  • 社区居民
  • 忠实会员
4楼#
发布于:2018-12-21 08:34
谢谢分享
2056013580
精灵王
精灵王
  • 注册日期2016-09-16
  • 发帖数53
  • 影币26枚
  • 魔力值1094点
  • 蓝光币8克拉
  • 社区居民
  • 忠实会员
5楼#
发布于:2018-12-21 08:37
感谢楼主分享!
y1218
新手
新手
  • 注册日期2018-10-06
  • 发帖数24
  • 影币31枚
  • 魔力值54点
  • 蓝光币13克拉
  • 社区居民
6楼#
发布于:2018-12-21 08:38
感谢分享!
zhaofl
骑士
骑士
  • 注册日期2017-01-25
  • 发帖数166
  • 影币139枚
  • 魔力值401点
  • 蓝光币34克拉
  • 社区居民
7楼#
发布于:2018-12-21 08:38
谢谢分享!
kentgx
精灵王
精灵王
  • 注册日期2017-01-05
  • 发帖数90
  • 影币64枚
  • 魔力值952点
  • 蓝光币40克拉
8楼#
发布于:2018-12-21 08:43
不得了
lingnanfengt
论坛版主
论坛版主
  • 注册日期2017-06-15
  • 发帖数1014
  • 影币1361枚
  • 魔力值933点
  • 蓝光币711克拉
  • 社区居民
  • 忠实会员
9楼#
发布于:2018-12-21 08:44
非常感谢分享
roockie
侠客
侠客
  • 注册日期2016-10-05
  • 发帖数37
  • 影币4枚
  • 魔力值148点
  • 蓝光币1克拉
10楼#
发布于:2018-12-21 10:52
谢谢分享
wuming555
精灵王
精灵王
  • 注册日期2016-04-08
  • 发帖数123
  • 影币12枚
  • 魔力值1429点
  • 蓝光币9克拉
  • 社区居民
11楼#
发布于:2018-12-21 10:54
好片子,可以收藏了
509sdyfk
精灵王
精灵王
  • 注册日期2016-09-13
  • 发帖数22
  • 影币26枚
  • 魔力值1132点
  • 蓝光币6克拉
  • 社区居民
  • 忠实会员
12楼#
发布于:2018-12-21 11:15
我怎么下不动啊
lly1971
风云使者
风云使者
  • 注册日期2015-08-06
  • 发帖数4674
  • 影币4964枚
  • 魔力值2070点
  • 蓝光币796克拉
  • 社区居民
  • 最爱沙发
  • 忠实会员
13楼#
发布于:2018-12-21 11:17
非常感谢!
cwt9818
新手
新手
  • 注册日期2017-02-16
  • 发帖数21
  • 影币40枚
  • 魔力值30点
  • 蓝光币18克拉
  • 社区居民
14楼#
发布于:2018-12-21 11:23
谢谢分享!
上一页
游客
返回顶部