gananicus
管理员
管理员
  • 注册日期2015-07-28
  • 发帖数1204
  • 影币37074枚
  • 魔力值1426点
  • 蓝光币1克拉
  • 社区居民
阅读:1600回复:30

[剧情]橘子酱男孩/出轨男女的那点事【内封中字】Marmalade.Boy.2018.1080p.BluRay.x264-WiKi 11.9GB

楼主#
更多 发布于:2018-09-23 19:24




◎译  名 橘子酱男孩/実写版 ママレード・ボーイ


◎片  名 ママレード・ボーイ


◎年  代 2018


◎产  地 日本


◎类  别 爱情


◎语  言 日语


◎上映日期 2018-04-27(日本)


◎IMDb评分  7.7/10 from 13 users


◎IMDb链接  http://www.imdb.com/title/tt7286500/


◎豆瓣评分 5.0/10 from 525 users


◎豆瓣链接 https://movie.douban.com/subject/27118338/


◎片  长 127分钟


◎导  演 广木隆一 Ryuichi Hiroki


◎主  演 樱井日奈子 Hinako Sakurai


吉泽亮 Yoshizawa Ryo


佐藤大树 Taiki Sato


优希美青 Mio Yuki


藤原季节 Kisetsu Fujiwara


远藤新菜 Nina Endô


竹财辉之助 Terunosuke Takezai


寺胁康文 Yasufumi Terawaki


筒井道隆 Michitaka Tsutsui


谷原章介 Shôsuke Tanihara


檀丽 Rei Dan


中山美穗 Miho Nakayama






◎简  介






活泼开朗的高中女生小石川光希(樱井日奈子 饰)突然得知父母要离婚的消息,他们双双出轨,和另一对夫妻谈恋爱,而且两家还住在了同一个屋檐下,对方家中有一个与光希同年的儿子松浦游(吉泽亮 饰),智商超高运动全能,光希不知不觉间喜欢上了他。






Video
ID : 1
Format : AVC
Format/Info : Advanced Video Codec
Format profile : High@L4.1
Format settings : CABAC / 5 Ref Frames
Format settings, CABAC : Yes
Format settings, ReFrames : 5 frames
Codec ID : V_MPEG4/ISO/AVC
Duration : 2 h 7 min
Bit rate : 11.9 Mb/s
Width : 1 920 pixels
Height : 804 pixels
Display aspect ratio : 2.40:1
Frame rate mode : Constant
Frame rate : 23.976 (24000/1001) FPS
Color space : YUV
Chroma subsampling : 4:2:0
Bit depth : 8 bits
Scan type : Progressive
Bits/(Pixel*Frame) : 0.322
Stream size : 10.6 GiB (89%)
Title : x264_L4.1 @ 11,900 Kbps (crf 17)
Writing library : x264 core 129 r2245+704+36 8e61944 tMod+MixAQ [8-bit@4:2:0 X86_64]
Encoding settings : cabac=1 / ref=5 / deblock=1:-3:-3 / analyse=0x3:0x133 / me=umh / subme=11 / psy=1 / fade_compensate=0.00 / psy_rd=1.05:0.10 / mixed_ref=1 / me_range=64 / chroma_me=1 / trellis=2 / 8x8dct=1 / cqm=0 / deadzone=21,11 / fast_pskip=0 / chroma_qp_offset=-3 / threads=12 / lookahead_threads=2 / sliced_threads=0 / nr=0 / decimate=1 / interlaced=0 / bluray_compat=0 / constrained_intra=0 / fgo=0 / bframes=10 / b_pyramid=2 / b_adapt=2 / b_bias=0 / direct=3 / weightb=1 / open_gop=0 / weightp=2 / keyint=250 / keyint_min=23 / scenecut=40 / intra_refresh=0 / rc=crf / mbtree=0 / crf=17.0000 / qcomp=0.70 / qpmin=0 / qpmax=69 / qpstep=4 / ip_ratio=1.25 / pb_ratio=1.15 / aq=1 / aq-strength=0.80 / aq-sensitivity=10.00 / aq-ifactor=1.00 / aq-pfactor=1.00 / aq-bfactor=1.00 / aq2=0
Language : Japanese
Default : Yes
Forced : No


Audio
ID : 2
Format : DTS
Format/Info : Digital Theater Systems
Codec ID : A_DTS
Duration : 2 h 7 min
Bit rate mode : Constant
Bit rate : 1 509 kb/s
Channel(s) : 6 channels
Channel positions : Front: L C R, Side: L R, LFE
Sampling rate : 48.0 kHz
Frame rate : 93.750 FPS (512 SPF)
Bit depth : 24 bits
Compression mode : Lossy
Stream size : 1.35 GiB (11%)
Title : Japanese DTS 5.1 @ 1,509 Kbps
Language : Japanese
Default : Yes
Forced : No


Text #1
ID : 3
Format : PGS
Muxing mode : zlib
Codec ID : S_HDMV/PGS
Codec ID/Info : Picture based subtitle format used on BDs/HD-DVDs
Duration : 2 h 7 min
Bit rate : 29.8 kb/s
Count of elements : 2931
Stream size : 27.1 MiB (0%)
Title : Japanese (PGS)
Language : Japanese
Default : No
Forced : No


Text #2
ID : 4
Format : ASS
Codec ID : S_TEXT/ASS
Codec ID/Info : Advanced Sub Station Alpha
Duration : 2 h 5 min
Bit rate : 64 b/s
Count of elements : 1193
Compression mode : Lossless
Stream size : 58.8 KiB (0%)
Title : Traditional Chinese (SUBPIG)
Language : Chinese
Default : Yes
Forced : No


Menu
00:00:00.000 : :00:00:00.000
00:11:27.103 : :00:11:27.103
00:19:30.127 : :00:19:30.127
00:28:55.859 : :00:28:55.859
00:33:33.011 : :00:33:33.011
00:47:19.628 : :00:47:19.628
00:57:20.520 : :00:57:20.520
01:11:52.808 : :01:11:52.808
01:26:28.391 : :01:26:28.391
01:38:40.623 : :01:38:40.623
01:51:13.375 : :01:51:13.375
02:03:30.027 : :02:03:30.027
附件名称/大小 下载次数 最后更新
Marmalade.Boy.2018.JAPANESE.1080p.BluRay.x264-WiKi.torrent (61KB)  112 09-23 19:22
yjjwlp
骑士
骑士
  • 注册日期2018-01-22
  • 发帖数71
  • 影币21枚
  • 魔力值471点
  • 蓝光币11克拉
沙发#
发布于:2018-09-23 19:28
谢谢楼主分享好片
新三林
骑士
骑士
  • 注册日期2016-03-07
  • 发帖数121
  • 影币284枚
  • 魔力值396点
  • 蓝光币10克拉
  • 社区居民
  • 忠实会员
板凳#
发布于:2018-09-23 20:30
非常多谢楼主公享
rock_czy
骑士
骑士
  • 注册日期2016-07-11
  • 发帖数82
  • 影币0枚
  • 魔力值423点
  • 蓝光币1克拉
地板#
发布于:2018-09-23 20:52
谢谢楼主分享好片
rock_czy
骑士
骑士
  • 注册日期2016-07-11
  • 发帖数82
  • 影币0枚
  • 魔力值423点
  • 蓝光币1克拉
4楼#
发布于:2018-09-23 20:53
谢谢楼主分享好片
zuozuo
精灵王
精灵王
  • 注册日期2015-09-21
  • 发帖数706
  • 影币660枚
  • 魔力值1409点
  • 蓝光币214克拉
  • 社区居民
  • 忠实会员
5楼#
发布于:2018-09-23 22:27
222222222222222222
鬼火3773
精灵王
精灵王
  • 注册日期2016-10-21
  • 发帖数240
  • 影币44枚
  • 魔力值1125点
  • 蓝光币64克拉
  • 社区居民
  • 忠实会员
6楼#
发布于:2018-09-23 22:36
没有图片不完美
douglas
精灵王
精灵王
  • 注册日期2015-08-06
  • 发帖数863
  • 影币0枚
  • 魔力值1105点
  • 蓝光币0克拉
  • 忠实会员
7楼#
发布于:2018-09-24 08:14
多謝分享~
douglas
精灵王
精灵王
  • 注册日期2015-08-06
  • 发帖数863
  • 影币0枚
  • 魔力值1105点
  • 蓝光币0克拉
  • 忠实会员
8楼#
发布于:2018-09-24 08:14
謝謝大大分享~
q854361
侠客
侠客
  • 注册日期2018-05-16
  • 发帖数131
  • 影币132枚
  • 魔力值100点
  • 蓝光币20克拉
9楼#
发布于:2018-09-24 15:00
謝謝大大分享~
别在装虚伪
精灵王
精灵王
  • 注册日期2017-02-22
  • 发帖数664
  • 影币686枚
  • 魔力值666点
  • 蓝光币442克拉
  • 社区居民
  • 忠实会员
10楼#
发布于:2018-09-24 16:07
感谢分享。。。。。。。。。。。。。。
quake2009
圣骑士
圣骑士
  • 注册日期2017-01-07
  • 发帖数476
  • 影币114枚
  • 魔力值367点
  • 蓝光币35克拉
  • 社区居民
11楼#
发布于:2018-09-24 20:20
谢谢楼主分享
affleck001
精灵王
精灵王
  • 注册日期2015-07-31
  • 发帖数171
  • 影币0枚
  • 魔力值1830点
  • 蓝光币10克拉
12楼#
发布于:2018-09-24 23:14
感謝大大無私分享!!  THANKS!!................................
anyshit
精灵王
精灵王
  • 注册日期2015-08-06
  • 发帖数686
  • 影币589枚
  • 魔力值1056点
  • 蓝光币237克拉
  • 社区居民
  • 最爱沙发
  • 忠实会员
13楼#
发布于:2018-09-25 08:59
謝謝大大分享
DELLZCH
骑士
骑士
  • 注册日期2018-05-31
  • 发帖数185
  • 影币905枚
  • 魔力值353点
  • 蓝光币66克拉
  • 社区居民
  • 忠实会员
14楼#
发布于:2018-09-25 11:35
謝謝分享
上一页
游客
返回顶部