smy
smy
总版主
总版主
  • 注册日期2015-07-27
  • 发帖数1455
  • 影币79769枚
  • 魔力值2493点
  • 蓝光币3克拉
  • 社区居民
  • 忠实会员
  • 喜欢达人
  • 原创写手
阅读:7995回复:224

[SeeHD原创首发]狄仁杰之四大天王/狄仁杰3 Detective Dee The Four Heavenly Kings 2018 4K 2160p WEB-DL x264 AAC-SmY 5.96G

楼主#
更多 发布于:2018-08-30 16:43




◎译  名 狄仁杰3/ Detective Dee: The Four Heavenly Kings
◎片  名 狄仁杰之四大天王
◎年  代 2018
◎产  地 中国大陆/香港
◎类  别 动作/悬疑/古装
◎语  言 汉语普通话
◎上映日期 2018-07-27(中国大陆)
◎豆瓣评分 6.5/10 from 91,560 users
◎豆瓣链接 https://movie.douban.com/subject/25882296/
◎片  长 132分钟
◎导  演 徐克 Hark Tsui
◎主  演 赵又廷 Mark Chao
冯绍峰 Shaofeng Feng
林更新 Gengxin Lin
阮经天 Ethan Juan
马思纯 Sichun Ma
刘嘉玲 Carina Lau
盛鉴 Chien Sheng
杨一威 Yiwei Yang
宝日夫 Bao Ri Fu
张傲月 Aoyue Zhang
孙蛟龙 Jiaolong Sun
汪汐潮 Xichao Wang
释胜钢 Shenggang Shi
李炳雷 Binglei Li
许明虎 Tiger Xu


◎简  介


狄仁杰(赵又廷 饰)大破神都龙王案后,高宗(盛鉴 饰)御赐神器亢龙锏,遭天后武则天(刘嘉玲 饰)嫉妒,天后为盗取亢龙锏陷害狄仁杰,召集了一帮会方术的“异人组”图谋不轨,并命令尉迟真金(冯绍峰 饰)带队。狄仁杰在医官沙陀忠(林更新 饰)的帮助下成功摆脱“异人组”迫害,并和尉迟真金商议和解,与此同时“异人组”刺客水月(马思纯 饰)却发现都城出现不明势力,在狄仁杰周旋于武则天的埋伏时,大唐陷入更深的危机,“封魔族”携异术登场,一场“屠魔”大战即将爆发……


◎获奖情况


第4届豆瓣电影年度榜单  (2017)
最值得期待的华语电影(提名)
General
Format                         : MPEG-4
Format profile                 : Base Media
Codec ID                       : isom
File size                      : 5.96 GiB
Duration                       : 2h 11mn
Overall bit rate               : 6 479 Kbps
Writing application            : Lavf57.41.100

Video
ID                             : 1
Format                         : AVC
Format/Info                    : Advanced Video Codec
Format profile                 : High@L5.1
Format settings, CABAC         : Yes
Format settings, ReFrames      : 3 frames
Codec ID                       : avc1
Codec ID/Info                  : Advanced Video Coding
Duration                       : 2h 11mn
Bit rate                       : 6 409 Kbps
Width                          : 3 840 pixels
Height                         : 1 992 pixels
Display aspect ratio           : 1.928
Frame rate mode                : Variable
Frame rate                     : 24.000 fps
Minimum frame rate             : 23.810 fps
Maximum frame rate             : 24.390 fps
Color space                    : YUV
Chroma subsampling             : 4:2:0
Bit depth                      : 8 bits
Scan type                      : Progressive
Bits/(Pixel*Frame)             : 0.035
Stream size                    : 5.89 GiB (99%)
Color range                    : Limited
Color primaries                : BT.709
Transfer characteristics       : BT.709
Matrix coefficients            : BT.709

Audio
ID                             : 2
Format                         : AAC
Format/Info                    : Advanced Audio Codec
Format profile                 : HE-AAC / LC
Codec ID                       : 40
Duration                       : 2h 11mn
Bit rate mode                  : Constant
Bit rate                       : 62.9 Kbps
Channel(s)                     : 2 channels
Channel positions              : Front: L R
Sampling rate                  : 44.1 KHz / 22.05 KHz
Compression mode               : Lossy
Stream size                    : 59.2 MiB (1%)

Detective Dee The Four Heavenly Kings 2018 4K 2160p WEB-DL x264 AAC-SmY.torrent
dongsnomman
圣骑士
圣骑士
  • 注册日期2017-08-04
  • 发帖数50
  • 影币35枚
  • 魔力值776点
  • 蓝光币2克拉
  • 社区居民
  • 忠实会员
沙发#
发布于:2018-08-30 16:54
前排前排,谢谢分享
zuozuo
精灵王
精灵王
  • 注册日期2015-09-21
  • 发帖数668
  • 影币626枚
  • 魔力值1326点
  • 蓝光币201克拉
  • 社区居民
  • 忠实会员
板凳#
发布于:2018-08-30 16:56
66666666666666666
gyfgdbzp
精灵王
精灵王
  • 注册日期2015-08-08
  • 发帖数19
  • 影币1077枚
  • 魔力值1896点
  • 蓝光币6克拉
  • 社区居民
  • 忠实会员
地板#
发布于:2018-08-30 16:58
应该还可以的。
yinxingde
骑士
骑士
  • 注册日期2015-08-01
  • 发帖数22
  • 影币15枚
  • 魔力值427点
  • 蓝光币1克拉
4楼#
发布于:2018-08-30 17:10
终于等到了
zxcv2222
精灵王
精灵王
  • 注册日期2016-09-18
  • 发帖数483
  • 影币2701枚
  • 魔力值1313点
  • 蓝光币62克拉
  • 社区居民
  • 忠实会员
5楼#
发布于:2018-08-30 17:18
感谢分享
laibaobao
骑士
骑士
  • 注册日期2018-03-09
  • 发帖数44
  • 影币4枚
  • 魔力值358点
  • 蓝光币1克拉
  • 社区居民
  • 忠实会员
6楼#
发布于:2018-08-30 17:33
终于等到你
xihoo
精灵王
精灵王
  • 注册日期2015-09-02
  • 发帖数91
  • 影币8枚
  • 魔力值1110点
  • 蓝光币1克拉
  • 社区居民
  • 忠实会员
7楼#
发布于:2018-08-30 18:37
感谢分享
hjrt
精灵王
精灵王
  • 注册日期2015-07-28
  • 发帖数107
  • 影币2169枚
  • 魔力值2130点
  • 蓝光币7克拉
  • 社区居民
  • 忠实会员
8楼#
发布于:2018-08-30 18:43
高清版的来了,谢谢分享
xjw0082017
骑士
骑士
  • 注册日期2017-11-18
  • 发帖数50
  • 影币20枚
  • 魔力值290点
  • 蓝光币5克拉
  • 社区居民
  • 忠实会员
9楼#
发布于:2018-08-30 18:52
不错,就是要4K高清版的
qxb520
圣骑士
圣骑士
  • 注册日期2016-06-04
  • 发帖数235
  • 影币183枚
  • 魔力值460点
  • 蓝光币140克拉
  • 社区居民
  • 忠实会员
10楼#
发布于:2018-08-30 19:04
应该要谢谢的
lyf011
侠客
侠客
  • 注册日期2016-11-24
  • 发帖数17
  • 影币20枚
  • 魔力值188点
  • 蓝光币2克拉
  • 社区居民
11楼#
发布于:2018-08-30 19:11
没速度!
鬼义虎神
侠客
侠客
  • 注册日期2016-11-27
  • 发帖数39
  • 影币24枚
  • 魔力值232点
  • 蓝光币8克拉
12楼#
发布于:2018-08-30 19:25
下到就是赚到啊
冷月梦寒
圣骑士
圣骑士
  • 注册日期2017-12-18
  • 发帖数360
  • 影币1479枚
  • 魔力值556点
  • 蓝光币85克拉
  • 社区居民
  • 最爱沙发
  • 忠实会员
13楼#
发布于:2018-08-30 20:01
内容不错,谢谢楼主分享
cssmj006
精灵王
精灵王
  • 注册日期2016-04-07
  • 发帖数161
  • 影币58枚
  • 魔力值1009点
  • 蓝光币15克拉
14楼#
发布于:2018-08-30 20:36
感谢分享!
上一页
游客
返回顶部