smy
smy
总版主
总版主
  • 注册日期2015-07-27
  • 发帖数1454
  • 影币79541枚
  • 魔力值2479点
  • 蓝光币3克拉
  • 社区居民
  • 忠实会员
  • 喜欢达人
  • 原创写手
阅读:11601回复:308

[SeeHD原创首发]唐人街探案2 Detective Chinatown Vol 2 2018 2160p 4K WEB-DL x264 AAC-SmY 5.49G

楼主#
更多 发布于:2018-04-20 18:07


◎译  名 唐探2 / Detective Chinatown Vol 2
◎片  名 唐人街探案2
◎年  代 2018
◎产  地 中国大陆
◎类  别 喜剧/动作/犯罪/悬疑
◎语  言 汉语普通话
◎上映日期 2018-02-16(中国大陆)
◎IMDb评分  6.2/10 from 556 users
◎IMDb链接  http://www.imdb.com/title/tt7752454/
◎豆瓣评分 7.0/10 from 302,409 users
◎豆瓣链接 https://movie.douban.com/subject/26698897/
◎片  长 120分钟
◎导  演 陈思诚 Sicheng Chen
◎主  演 王宝强 Baoqiang Wang
刘昊然 Haoran Liu
肖央 Yang Xiao
刘承羽 Natasha Liu Bordizzo
尚语贤 Yuxian Shang
王迅 Xun Wang
妻夫木聪 Satoshi Tsumabuki
迈克尔·皮特 Michael Pitt
白灵 Ling Bai
元华 Wah Yuen
曾江 Kenneth Tsang
王成思 Chengsi Wang
杨金赐 Jinci Yang
范湉湉 Tiantian Fan
佟丽娅 Liya Tong
陈思诚 Sicheng Chen


◎简  介


唐仁(王宝强 饰)为巨额奖金欺骗秦风(刘昊然 饰)到纽约参加世界名侦探大赛,然而随着和世界各国侦探们啼笑皆非的较量,两人却发现了隐藏在这次挑战背后的更大秘密...


◎获奖情况


第4届豆瓣电影年度榜单  (2017)
最值得期待的华语电影(提名)
General
Format                         : Matroska
Format version                 : Version 4 / Version 2
File size                      : 5.49 GiB
Duration                       : 2h 0mn
Overall bit rate               : 6 508 Kbps
Encoded date                   : UTC 2018-04-20 09:30:03
Writing application            : mkvmerge v7.1.0 ('Good Love') 32bit built on Jul 27 2014 12:59:18
Writing library                : libebml v1.3.0 + libmatroska v1.4.1

Video
ID                             : 1
Format                         : AVC
Format/Info                    : Advanced Video Codec
Format profile                 : High@L5.1
Format settings, CABAC         : Yes
Format settings, ReFrames      : 3 frames
Codec ID                       : V_MPEG4/ISO/AVC
Duration                       : 2h 0mn
Bit rate                       : 6 316 Kbps
Width                          : 3 840 pixels
Height                         : 1 600 pixels
Display aspect ratio           : 2.40:1
Frame rate mode                : Constant
Frame rate                     : 24.000 fps
Color space                    : YUV
Chroma subsampling             : 4:2:0
Bit depth                      : 8 bits
Scan type                      : Progressive
Bits/(Pixel*Frame)             : 0.043
Stream size                    : 5.33 GiB (97%)
Default                        : Yes
Forced                         : No
Color range                    : Limited
Color primaries                : BT.709
Transfer characteristics       : BT.709
Matrix coefficients            : BT.709

Audio
ID                             : 2
Format                         : AAC
Format/Info                    : Advanced Audio Codec
Format profile                 : LC
Codec ID                       : A_AAC
Duration                       : 2h 0mn
Bit rate                       : 192 Kbps
Channel(s)                     : 2 channels
Channel positions              : Front: L R
Sampling rate                  : 44.1 KHz
Frame rate                     : 43.066 fps (1024 spf)
Compression mode               : Lossy
Delay relative to video        : -83ms
Stream size                    : 164 MiB (3%)
Default                        : Yes
Forced                         : No
Detective Chinatown Vol 2 2018 2160p 4K WEB-DL x264 AAC-SmY_(SeeHD.Co).torrent
坦克哥
圣骑士
圣骑士
  • 注册日期2017-11-07
  • 发帖数251
  • 影币858枚
  • 魔力值411点
  • 蓝光币83克拉
  • 社区居民
  • 忠实会员
沙发#
发布于:2018-04-20 18:12
这个是真的了吗?
linzhanqing
骑士
骑士
  • 注册日期2017-10-19
  • 发帖数3
  • 影币1枚
  • 魔力值316点
  • 蓝光币2克拉
板凳#
发布于:2018-04-20 18:21
周末看一下,没去电影院。在笔电上看也差不多吧
181680941
侠客
侠客
  • 注册日期2016-12-14
  • 发帖数9
  • 影币0枚
  • 魔力值94点
  • 蓝光币1克拉
地板#
发布于:2018-04-20 18:28
周末看一下,感谢楼主分享
wuyayaxiong
新手
新手
  • 注册日期2016-03-05
  • 发帖数5
  • 影币11枚
  • 魔力值69点
  • 蓝光币1克拉
4楼#
发布于:2018-04-20 18:43
是个不错的电影,感谢分享
san_sao
圣骑士
圣骑士
  • 注册日期2015-07-30
  • 发帖数84
  • 影币365枚
  • 魔力值888点
  • 蓝光币23克拉
  • 社区居民
  • 忠实会员
5楼#
发布于:2018-04-20 18:56
感谢楼主分享
HK名联
侠客
侠客
  • 注册日期2018-03-18
  • 发帖数36
  • 影币0枚
  • 魔力值240点
  • 蓝光币9克拉
  • 社区居民
  • 忠实会员
6楼#
发布于:2018-04-20 18:59
更新好快呢,感谢,周末有戏睇了
ldh_just
骑士
骑士
  • 注册日期2016-09-10
  • 发帖数58
  • 影币4枚
  • 魔力值433点
  • 蓝光币2克拉
7楼#
发布于:2018-04-20 18:59
感谢楼主~~
zuozuo
精灵王
精灵王
  • 注册日期2015-09-21
  • 发帖数646
  • 影币608枚
  • 魔力值1282点
  • 蓝光币194克拉
  • 社区居民
  • 忠实会员
8楼#
发布于:2018-04-20 19:30
111111111111111
2badao
骑士
骑士
  • 注册日期2017-01-12
  • 发帖数95
  • 影币102枚
  • 魔力值231点
  • 蓝光币34克拉
  • 社区居民
  • 忠实会员
9楼#
发布于:2018-04-20 19:35
感谢楼主分享
pawaluodi
精灵王
精灵王
  • 注册日期2015-08-08
  • 发帖数198
  • 影币124枚
  • 魔力值954点
  • 蓝光币30克拉
10楼#
发布于:2018-04-20 19:39
感谢分享,终于出来了
dy1218
精灵王
精灵王
  • 注册日期2015-07-29
  • 发帖数577
  • 影币315枚
  • 魔力值1077点
  • 蓝光币94克拉
  • 社区居民
  • 忠实会员
11楼#
发布于:2018-04-20 19:41
感谢楼主分享
zzreye
侠客
侠客
  • 注册日期2018-03-20
  • 发帖数74
  • 影币14枚
  • 魔力值106点
  • 蓝光币9克拉
  • 社区居民
12楼#
发布于:2018-04-20 19:45
感谢分享!太棒了!
25435356
侠客
侠客
  • 注册日期2018-03-01
  • 发帖数24
  • 影币3枚
  • 魔力值151点
  • 蓝光币2克拉
13楼#
发布于:2018-04-20 19:50
没速度啊。。。。。。。。。。。
xsl226
精灵王
精灵王
  • 注册日期2015-08-29
  • 发帖数259
  • 影币2157枚
  • 魔力值1232点
  • 蓝光币120克拉
  • 社区居民
  • 忠实会员
  • 原创写手
14楼#
发布于:2018-04-20 19:50
感谢发高清资源!
上一页
游客
返回顶部