smy
smy
总版主
总版主
  • 注册日期2015-07-27
  • 发帖数1453
  • 影币78797枚
  • 魔力值2455点
  • 蓝光币3克拉
  • 社区居民
  • 忠实会员
  • 喜欢达人
  • 原创写手
阅读:13603回复:435

[SeeHD原创首发]西游记女儿国 The Monkey King 3: Kingdom of Women 2018 4K 2160p WEB-DL x264 AAC-SmY 5.17G

楼主#
更多 发布于:2018-03-15 17:56










◎译  名 西游记·女儿国/西游记之女儿国
◎片  名 西游记女儿国
◎年  代 2018
◎产  地 中国大陆/香港
◎类  别 喜剧/爱情/奇幻
◎语  言 汉语普通话
◎上映日期 2018-02-16(中国大陆)
◎IMDb评分  5.6/10 from 204 users
◎IMDb链接  http://www.imdb.com/title/tt6466464/
◎豆瓣评分 4.7/10 from 51,309 users
◎豆瓣链接 https://movie.douban.com/subject/25829175/
◎片  长 116分钟
◎导  演 郑保瑞 Pou-Soi Cheang
◎主  演 郭富城 Aaron Kwok
冯绍峰 Shaofeng Feng
赵丽颖 Liying Zhao
小沈阳 Xiao Shen-Yang
罗仲谦 Chung Him Law
林志玲 Chiling Lin
梁咏琪 Gigi Leung
刘涛 Tao Liu
孙伊涵 Yihan Sun
苑琼丹 King-Tan Yuen
潘斌龙 Bin-long Pan
陈雅丽 Allie Chan
施诗 Shi Shi


◎简  介


唐僧师徒途经忘川河,因激怒河神而误入西梁女界。闯入其中,众人才发现这个国家只有女性,并且建国以来此地就没来过男性。而且国中立有祖训,将男人视为天敌。典籍中更有预言,指明有朝一日,会有东土而来的僧人带着一只猴子、一头猪和一个小蓝人闯入其中。他们到来之日,便是女儿国走向毁灭之时。


◎获奖情况


第4届豆瓣电影年度榜单  (2017)
最值得期待的华语电影(提名)
General
Format                         : Matroska
Format version                 : Version 4 / Version 2
File size                      : 5.17 GiB
Duration                       : 1h 53mn
Overall bit rate               : 6 495 Kbps
Encoded date                   : UTC 2018-03-15 09:32:36
Writing application            : mkvmerge v7.1.0 ('Good Love') 32bit built on Jul 27 2014 12:59:18
Writing library                : libebml v1.3.0 + libmatroska v1.4.1

Video
ID                             : 1
Format                         : AVC
Format/Info                    : Advanced Video Codec
Format profile                 : High@L5.1
Format settings, CABAC         : Yes
Format settings, ReFrames      : 3 frames
Codec ID                       : V_MPEG4/ISO/AVC
Duration                       : 1h 53mn
Bit rate                       : 6 303 Kbps
Width                          : 3 840 pixels
Height                         : 2 024 pixels
Display aspect ratio           : 1.897
Frame rate mode                : Constant
Frame rate                     : 24.000 fps
Color space                    : YUV
Chroma subsampling             : 4:2:0
Bit depth                      : 8 bits
Scan type                      : Progressive
Bits/(Pixel*Frame)             : 0.034
Stream size                    : 5.02 GiB (97%)
Default                        : Yes
Forced                         : No
Color range                    : Limited
Color primaries                : BT.709
Transfer characteristics       : BT.709
Matrix coefficients            : BT.709

Audio
ID                             : 2
Format                         : AAC
Format/Info                    : Advanced Audio Codec
Format profile                 : LC
Codec ID                       : A_AAC
Duration                       : 1h 53mn
Bit rate                       : 192 Kbps
Channel(s)                     : 2 channels
Channel positions              : Front: L R
Sampling rate                  : 44.1 KHz
Frame rate                     : 43.066 fps (1024 spf)
Compression mode               : Lossy
Delay relative to video        : -83ms
Stream size                    : 155 MiB (3%)
Default                        : Yes
Forced                         : No




 
The Monkey King 3 Kingdom of Women 2018 4K 2160p WEB-DL x264 AAC-SmY_(SeeHD.Co).torrent
爱电影66
精灵王
精灵王
  • 注册日期2016-02-01
  • 发帖数110
  • 影币0枚
  • 魔力值934点
  • 蓝光币0克拉
沙发#
发布于:2018-03-15 17:59
谢谢分享   楼主辛苦
爱电影66
精灵王
精灵王
  • 注册日期2016-02-01
  • 发帖数110
  • 影币0枚
  • 魔力值934点
  • 蓝光币0克拉
板凳#
发布于:2018-03-15 18:00
谢谢分享   楼主辛苦
爱电影66
精灵王
精灵王
  • 注册日期2016-02-01
  • 发帖数110
  • 影币0枚
  • 魔力值934点
  • 蓝光币0克拉
地板#
发布于:2018-03-15 18:00
谢谢分享   楼主辛苦了
xihoo
精灵王
精灵王
  • 注册日期2015-09-02
  • 发帖数86
  • 影币13枚
  • 魔力值965点
  • 蓝光币0克拉
  • 社区居民
  • 忠实会员
4楼#
发布于:2018-03-15 18:01
真的假的?
Alienware
精灵王
精灵王
  • 注册日期2016-12-02
  • 发帖数58
  • 影币5枚
  • 魔力值962点
  • 蓝光币2克拉
  • 社区居民
  • 忠实会员
5楼#
发布于:2018-03-15 18:02
感谢分享高清好片
春夜喜雨
侠客
侠客
  • 注册日期2017-04-23
  • 发帖数25
  • 影币16枚
  • 魔力值164点
  • 蓝光币9克拉
6楼#
发布于:2018-03-15 18:04
谢谢分享   楼主辛苦
春夜喜雨
侠客
侠客
  • 注册日期2017-04-23
  • 发帖数25
  • 影币16枚
  • 魔力值164点
  • 蓝光币9克拉
7楼#
发布于:2018-03-15 18:05
楼主辛苦了,是回复才能下吗
周富贵
骑士
骑士
  • 注册日期2016-12-11
  • 发帖数26
  • 影币1枚
  • 魔力值332点
  • 蓝光币0克拉
  • 社区居民
  • 忠实会员
8楼#
发布于:2018-03-15 18:05
谢谢分享   楼主辛苦
春夜喜雨
侠客
侠客
  • 注册日期2017-04-23
  • 发帖数25
  • 影币16枚
  • 魔力值164点
  • 蓝光币9克拉
9楼#
发布于:2018-03-15 18:05
是需要回复才能下吗?谢谢楼主了.
1100105610
精灵王
精灵王
  • 注册日期2016-08-18
  • 发帖数197
  • 影币831枚
  • 魔力值996点
  • 蓝光币7克拉
  • 社区居民
  • 忠实会员
10楼#
发布于:2018-03-15 18:07
下载链接在哪呢
1100105610
精灵王
精灵王
  • 注册日期2016-08-18
  • 发帖数197
  • 影币831枚
  • 魔力值996点
  • 蓝光币7克拉
  • 社区居民
  • 忠实会员
11楼#
发布于:2018-03-15 18:07
下载链接在哪呢
1100105610
精灵王
精灵王
  • 注册日期2016-08-18
  • 发帖数197
  • 影币831枚
  • 魔力值996点
  • 蓝光币7克拉
  • 社区居民
  • 忠实会员
12楼#
发布于:2018-03-15 18:07
下载链接在哪呢
hncsliaokai
骑士
骑士
  • 注册日期2017-06-07
  • 发帖数44
  • 影币3枚
  • 魔力值256点
  • 蓝光币8克拉
  • 社区居民
13楼#
发布于:2018-03-15 18:15
谢谢分享   楼主辛苦
球迷1
圣骑士
圣骑士
  • 注册日期2016-06-11
  • 发帖数47
  • 影币56枚
  • 魔力值662点
  • 蓝光币2克拉
14楼#
发布于:2018-03-15 18:34
辛苦啦老婆
上一页
游客
返回顶部