gananicus
管理员
管理员
  • 注册日期2015-07-28
  • 发帖数1203
  • 影币37048枚
  • 魔力值1424点
  • 蓝光币1克拉
  • 社区居民
阅读:1410回复:36

[科幻]星球大战8:最后的绝地武士/星球大战:最后绝地武士(港)/星球大战8/星战8.Star.Wars.The.Last.Jedi.2017.720p.BluRay.x264-SPARKS 6.56GB

楼主#
更多 发布于:2018-03-10 19:26



◎译  名 星球大战8:最后的绝地武士/星球大战:最后绝地武士(港)/星球大战8/星战8
◎片  名 Star Wars: The Last Jedi
◎年  代 2017
◎产  地 美国
◎类  别 动作/科幻/冒险
◎语  言 英语
◎上映日期 2017-12-15(美国)/2018-01-05(中国大陆)
◎IMDb评分  7.5/10 from 323,040 users
◎IMDb链接  http://www.imdb.com/title/tt2527336/
◎豆瓣评分 7.3/10 from 65,660 users
◎豆瓣链接 https://movie.douban.com/subject/22265634/
◎片  长 152分钟
◎导  演 莱恩·约翰逊 Rian Johnson
◎主  演 马克·哈米尔 Mark Hamill
凯丽·费雪 Carrie Fisher
黛西·雷德利 Daisy Ridley
亚当·德赖弗 Adam Driver
约翰·博耶加 John Boyega
奥斯卡·伊萨克 Oscar Isaac
安迪·瑟金斯 Andy Serkis
露皮塔·尼永奥 Lupita Nyong'o
多姆纳尔·格里森 Domhnall Gleeson
安东尼·丹尼尔斯 Anthony Daniels
格温多兰·克里斯蒂 Gwendoline Christie
凯莉·玛丽·陈 Kelly Marie Tran
劳拉·邓恩 Laura Dern
本尼西奥·德尔·托罗 Benicio Del Toro
弗兰克·奥兹 Frank Oz
比莉·洛德 Billie Lourd
阿曼达·劳伦斯 Amanda Lawrence
吉米·维 Jimmy Vee
贾斯汀·塞洛克斯 Justin Theroux
蒂姆·罗斯 Tim Rose
汤姆·凯恩 Tom Kane
亚德里安·埃德蒙松 Adrian Edmondson
马克·路易斯·琼斯 Mark Lewis Jones
赫敏·科菲尔德 Hermione Corfield
吴青芸 Thanh Van Ngo
诺阿·西甘 Noah Segan
保罗·卡塞 Paul Kasey
米凯拉·科尔 Michaela Coel
普瑞扬咖·伯福德 Priyanga Burford
纳温·乔杜里 Navin Chowdhry
安德鲁·杰克 Andrew Jack
克里斯塔·克拉克 Crystal Clarke
伊川东吾 Togo Igawa

◎简  介

《星球大战:最后的绝地武士》承接前作《星球大战:原力觉醒》的剧情,讲述第一军团全面侵袭之下,蕾伊(黛西·雷德利 Daisy Ridley 饰)、芬恩(约翰·博耶加 John Boyega 饰)、波·达默龙(奥斯卡·伊萨克 Oscar Isaac 饰)三位年轻主角各自的抉 择和冒险故事。前作中觉醒强大原力的蕾伊独自寻访隐居的绝地大师卢克·天行者(马克·哈米尔 Mark Hamill 饰),在后者的指导下接受原力训练。芬恩接受了一项几乎不可能完成的任务,为此他不得不勇闯敌营,面对自己的过去。波·达默龙则要适应从战士向领袖的角色转换,这一过程中他也将接受一些血的教训。

◎获奖情况

第90届奥斯卡金像奖  (2018)
最佳视觉效果(提名) 尼尔·斯坎伦 / 本·莫里斯 / 克里斯·考博德 / 迈克尔·马尔霍兰
最佳混音(提名) 伦·克斯 / 斯图尔特·威尔逊 / 大卫·帕克 / 迈克尔·斯曼内科
最佳音效剪辑(提名) 伦·克斯 / 马修·伍德
最佳原创配乐(提名) 约翰·威廉姆斯

第71届英国电影学院奖  (2018)
电影奖 最佳特殊视觉效果(提名)
电影奖 最佳音效(提名)

第22届美国艺术指导工会奖  (2018)
电影奖 最佳幻想电影艺术指导(提名)

第16届美国视觉效果协会奖  (2018)
最佳特效电影视觉效果(提名)
最佳电影虚拟摄影(提名)
最佳真人电影模拟动画效果(提名)

第54届美国声音效果协会奖  (2018)
真人电影最佳音效(提名)



Video
ID                                       : 1
Format                                   : AVC
Format/Info                              : Advanced Video Codec
Format profile                           : High@L4.1
Format settings                          : CABAC / 5 Ref Frames
Format settings, CABAC                   : Yes
Format settings, RefFrames               : 5 frames
Codec ID                                 : V_MPEG4/ISO/AVC
Duration                                 : 2 h 31 min
Bit rate                                 : 4 673 kb/s
Width                                    : 1 280 pixels
Height                                   : 536 pixels
Display aspect ratio                     : 2.40:1
Frame rate mode                          : Constant
Frame rate                               : 23.976 FPS
Color space                              : YUV
Chroma subsampling                       : 4:2:0
Bit depth                                : 8 bits
Scan type                                : Progressive
Bits/(Pixel*Frame)                       : 0.284
Stream size                              : 4.96 GiB (76%)
Writing library                          : x264 core 155 r2901 7d0ff22
Encoding settings                        : cabac=1 / ref=5 / deblock=1:0:0 / analyse=0x3:0x133 / me=umh / subme=7 / psy=1 / psy_rd=1.00:0.00 / mixed_ref=1 / me_range=16 / chroma_me=1 / trellis=1 / 8x8dct=1 / cqm=0 / deadzone=21,11 / fast_pskip=0 / chroma_qp_offset=-2 / threads=17 / lookahead_threads=2 / sliced_threads=0 / nr=0 / decimate=1 / interlaced=0 / bluray_compat=0 / constrained_intra=0 / bframes=3 / b_pyramid=2 / b_adapt=1 / b_bias=0 / direct=1 / weightb=1 / open_gop=0 / weightp=2 / keyint=250 / keyint_min=23 / scenecut=40 / intra_refresh=0 / rc_lookahead=40 / rc=2pass / mbtree=1 / bitrate=4673 / ratetol=1.0 / qcomp=0.60 / qpmin=0 / qpmax=69 / qpstep=4 / cplxblur=20.0 / qblur=0.5 / ip_ratio=1.40 / aq=1:1.00
Language                                 : English
Default                                  : Yes
Forced                                   : No

Audio
ID                                       : 2
Format                                   : DTS
Format/Info                              : Digital Theater Systems
Mode                                     : 16
Format settings, Endianness              : Big
Codec ID                                 : A_DTS
Duration                                 : 2 h 31 min
Bit rate mode                            : Constant
Bit rate                                 : 1 509 kb/s
Channel(s)                               : 6 channels
Channel positions                        : Front: L C R, Side: L R, LFE
Sampling rate                            : 48.0 kHz
Frame rate                               : 93.750 FPS (512 SPF)
Bit depth                                : 24 bits
Compression mode                         : Lossy
Stream size                              : 1.60 GiB (24%)
Language                                 : English
Default                                  : Yes
Forced                                   : No

Menu
00:00:00.000                             : en:00:00:00.000
00:00:18.644                             : en:00:00:18.644
00:01:45.731                             : en:00:01:45.731
00:03:11.817                             : en:00:03:11.817
00:07:43.296                             : en:00:07:43.296
00:12:48.434                             : en:00:12:48.434
00:13:44.574                             : en:00:13:44.574
00:16:29.280                             : en:00:16:29.280
00:19:59.281                             : en:00:19:59.281
00:22:51.370                             : en:00:22:51.370
00:26:04.980                             : en:00:26:04.980
00:27:22.850                             : en:00:27:22.850
00:31:24.758                             : en:00:31:24.758
00:32:54.681                             : en:00:32:54.681
00:35:27.667                             : en:00:35:27.667
00:38:11.498                             : en:00:38:11.498
00:41:53.428                             : en:00:41:53.428
00:44:29.542                             : en:00:44:29.542
00:46:51.475                             : en:00:46:51.475
00:51:41.932                             : en:00:51:41.932
00:53:50.060                             : en:00:53:50.060
00:55:41.505                             : en:00:55:41.505
00:57:39.581                             : en:00:57:39.581
00:59:16.636                             : en:00:59:16.636
01:02:05.847                             : en:01:02:05.847
01:03:07.701                             : en:01:03:07.701
01:05:41.729                             : en:01:05:41.729
01:07:03.478                             : en:01:07:03.478
01:10:25.721                             : en:01:10:25.721
01:13:30.323                             : en:01:13:30.323
01:17:43.450                             : en:01:17:43.450
01:20:53.057                             : en:01:20:53.057
01:24:17.970                             : en:01:24:17.970
01:26:23.220                             : en:01:26:23.220
01:27:59.524                             : en:01:27:59.524
01:30:49.361                             : en:01:30:49.361
01:32:54.569                             : en:01:32:54.569
01:35:53.706                             : en:01:35:53.706
01:37:10.616                             : en:01:37:10.616
01:39:12.864                             : en:01:39:12.864
01:42:07.663                             : en:01:42:07.663
01:45:03.714                             : en:01:45:03.714
01:49:35.694                             : en:01:49:35.694
01:52:20.609                             : en:01:52:20.609
01:56:04.749                             : en:01:56:04.749
01:58:52.083                             : en:01:58:52.083
02:03:11.134                             : en:02:03:11.134
02:06:39.759                             : en:02:06:39.759
02:11:43.604                             : en:02:11:43.604
02:15:12.104                             : en:02:15:12.104
02:20:16.700                             : en:02:20:16.700
02:23:39.694                             : en:02:23:39.694

附件名称/大小 下载次数 最后更新
Star.Wars.The.Last.Jedi.2017.720p.BluRay.x264-SPARKS.torrent (133KB)  219 03-10 19:26

最新喜欢:

scgywwscgyww
bzhou1973
精灵王
精灵王
  • 注册日期2017-01-04
  • 发帖数346
  • 影币282枚
  • 魔力值725点
  • 蓝光币169克拉
  • 社区居民
  • 忠实会员
沙发#
发布于:2018-03-10 19:45
星球大战8:最后的绝地武士/星球大战:最后绝地武士(港)/星球大战8/星战8.Star.Wars.The.Last.Jedi.2017.720p.BluRay.x264-SPARKS 6.56GB
zhwhome
精灵王
精灵王
  • 注册日期2015-07-28
  • 发帖数1520
  • 影币2727枚
  • 魔力值2931点
  • 蓝光币274克拉
  • 社区居民
  • 最爱沙发
  • 忠实会员
板凳#
发布于:2018-03-10 19:50
谢谢分享下载
闭上眼睛
骑士
骑士
  • 注册日期2017-08-08
  • 发帖数221
  • 影币170枚
  • 魔力值280点
  • 蓝光币164克拉
地板#
发布于:2018-03-10 19:56
感谢楼主分享
mddx
侠客
侠客
  • 注册日期2017-11-21
  • 发帖数9
  • 影币2枚
  • 魔力值226点
  • 蓝光币2克拉
  • 社区居民
  • 忠实会员
4楼#
发布于:2018-03-10 20:08
等到清晰版了。感谢楼主分享。
zshamo
圣骑士
圣骑士
  • 注册日期2016-09-11
  • 发帖数117
  • 影币2枚
  • 魔力值590点
  • 蓝光币9克拉
  • 社区居民
  • 忠实会员
5楼#
发布于:2018-03-10 20:38
利害了我的割
1100105610
精灵王
精灵王
  • 注册日期2016-08-18
  • 发帖数207
  • 影币1457枚
  • 魔力值1260点
  • 蓝光币7克拉
  • 社区居民
  • 忠实会员
6楼#
发布于:2018-03-10 20:50
感谢分享
jiansen1988
骑士
骑士
  • 注册日期2016-06-28
  • 发帖数27
  • 影币0枚
  • 魔力值396点
  • 蓝光币0克拉
7楼#
发布于:2018-03-10 20:51
谢谢分享~~~~~~~~
lisn1999
圣骑士
圣骑士
  • 注册日期2016-08-18
  • 发帖数33
  • 影币279枚
  • 魔力值958点
  • 蓝光币4克拉
  • 社区居民
  • 忠实会员
8楼#
发布于:2018-03-10 20:56
谢谢分享下载
xiekiller
精灵王
精灵王
  • 注册日期2016-11-12
  • 发帖数530
  • 影币427枚
  • 魔力值564点
  • 蓝光币31克拉
  • 社区居民
9楼#
发布于:2018-03-10 21:44
请问有字幕吗?
蓝宇mqw
骑士
骑士
  • 注册日期2016-11-27
  • 发帖数62
  • 影币5枚
  • 魔力值268点
  • 蓝光币0克拉
10楼#
发布于:2018-03-10 21:50
真的好想看一看。
david001
精灵王
精灵王
  • 注册日期2015-07-29
  • 发帖数305
  • 影币134枚
  • 魔力值1535点
  • 蓝光币11克拉
  • 社区居民
  • 忠实会员
11楼#
发布于:2018-03-10 21:54
谢谢分享下载
yjjwlp
骑士
骑士
  • 注册日期2018-01-22
  • 发帖数71
  • 影币21枚
  • 魔力值471点
  • 蓝光币11克拉
12楼#
发布于:2018-03-10 22:08
感谢楼主分享
wsc19820204
圣骑士
圣骑士
  • 注册日期2016-01-22
  • 发帖数72
  • 影币0枚
  • 魔力值733点
  • 蓝光币0克拉
  • 社区居民
13楼#
发布于:2018-03-10 22:12
星球大战8:最后的绝地武士/星球大战:最后绝地武士(港)/星球大战8/星战8.Star.Wars.The.Last.Jedi.2017.720p.BluRay.x264-SPARKS 6.56GB
eastdualwood
骑士
骑士
  • 注册日期2016-08-21
  • 发帖数77
  • 影币0枚
  • 魔力值475点
  • 蓝光币6克拉
14楼#
发布于:2018-03-10 22:39
谢谢分享~~~~
上一页
游客
返回顶部