gananicus
管理员
管理员
  • 注册日期2015-07-28
  • 发帖数1045
  • 影币31384枚
  • 魔力值1102点
  • 蓝光币1克拉
  • 社区居民
阅读:934回复:12

[恐怖]今晚打丧尸/今晚打喪屍【粤语中字】Zombiology.2017.1080p.BluRay.x264.TrueHD.5.1-FGT 11.22GB

楼主#
更多 发布于:2018-03-05 19:57


◎译  名 今晚打丧尸/Zombiology: Enjoy Yourself Tonight
◎片  名 今晚打喪屍
◎年  代 2017
◎产  地 香港
◎类  别 喜剧/恐怖
◎语  言 粤语
◎上映日期 2017-06-29(香港)
◎IMDb评分  5.0/10 from 113 users
◎IMDb链接  http://www.imdb.com/title/tt6220406/
◎豆瓣评分 4.4/10 from 332 users
◎豆瓣链接 https://movie.douban.com/subject/26747344/
◎片  长 105分钟
◎导  演 卢炜麟 Alan Lo
◎编  剧 余咏良
◎主  演 张继聪 Louis Cheung
   白只 Michael Ning
   万梓良 Alex Man
   吴家丽 Carrie Ng
   王敏奕 Venus Wong
   颜卓灵 Cherry Ngan

◎标  签 香港 | 丧尸 | 香港电影 | 僵尸 | 2017 | 电影 | 黑色喜剧 | 喜剧

◎简  介

郑思杰监制,卢炜麟执导的《今晚打僵尸》则是港味十足的喜剧,将主攻香港本土市场,不会在内地公映。由白只、张继聪主演的《今晚打僵尸》则是一部惊悚题材的喜剧,该片根据余咏良的畅销小说改编而成。

Video
ID                                       : 1
Format                                   : AVC
Format/Info                              : Advanced Video Codec
Format profile                           : High@L4.1
Format settings                          : CABAC / 4 Ref Frames
Format settings, CABAC                   : Yes
Format settings, ReFrames                : 4 frames
Codec ID                                 : V_MPEG4/ISO/AVC
Duration                                 : 1 h 46 min
Bit rate                                 : 11.5 Mb/s
Width                                    : 1 920 pixels
Height                                   : 804 pixels
Display aspect ratio                     : 2.40:1
Frame rate mode                          : Constant
Frame rate                               : 24.000 FPS
Color space                              : YUV
Chroma subsampling                       : 4:2:0
Bit depth                                : 8 bits
Scan type                                : Progressive
Bits/(Pixel*Frame)                       : 0.310
Stream size                              : 8.35 GiB (74%)
Title                                    : Zombiology.2017.CHINESE.1080p.BluRay.x264.TrueHD.5.1-FGT
Writing library                          : x264 core 148 r2795M aaa9aa8
Encoding settings                        : cabac=1 / ref=4 / deblock=1:-2:-2 / analyse=0x3:0x113 / me=umh / subme=9 / psy=1 / psy_rd=1.00:0.15 / mixed_ref=1 / me_range=16 / chroma_me=1 / trellis=2 / 8x8dct=1 / cqm=0 / deadzone=21,11 / fast_pskip=1 / chroma_qp_offset=-3 / threads=24 / lookahead_threads=3 / sliced_threads=0 / nr=0 / decimate=1 / interlaced=0 / bluray_compat=0 / constrained_intra=0 / bframes=3 / b_pyramid=2 / b_adapt=2 / b_bias=0 / direct=3 / weightb=1 / open_gop=0 / weightp=2 / keyint=250 / keyint_min=25 / scenecut=40 / intra_refresh=0 / rc_lookahead=50 / rc=abr / mbtree=1 / bitrate=11500 / ratetol=1.0 / qcomp=0.60 / qpmin=0 / qpmax=69 / qpstep=4 / vbv_maxrate=31250 / vbv_bufsize=31250 / nal_hrd=none / filler=0 / ip_ratio=1.40 / aq=1:1.00
Language                                 : Chinese
Default                                  : Yes
Forced                                   : No

Audio #1
ID                                       : 2
Format                                   : TrueHD
Codec ID                                 : A_TRUEHD
Duration                                 : 1 h 46 min
Bit rate mode                            : Variable
Bit rate                                 : 3 122 kb/s
Maximum bit rate                         : 5 940 kb/s
Channel(s)                               : 6 channels
Channel positions                        : Front: L C R, Side: L R, LFE
Sampling rate                            : 96.0 kHz
Frame rate                               : 2 400.000 FPS (40 SPF)
Compression mode                         : Lossless
Stream size                              : 2.33 GiB (21%)
Title                                    : Zombiology.2017.CHINESE.1080p.BluRay.x264.TrueHD.5.1-FGT
Language                                 : Chinese
Default                                  : Yes
Forced                                   : No

Audio #2
ID                                       : 3
Format                                   : AC-3
Format/Info                              : Audio Coding 3
Codec ID                                 : A_AC3
Duration                                 : 1 h 46 min
Bit rate mode                            : Constant
Bit rate                                 : 640 kb/s
Channel(s)                               : 6 channels
Channel positions                        : Front: L C R, Side: L R, LFE
Sampling rate                            : 48.0 kHz
Frame rate                               : 31.250 FPS (1536 SPF)
Bit depth                                : 16 bits
Compression mode                         : Lossy
Stream size                              : 488 MiB (4%)
Title                                    : Zombiology.2017.CHINESE.1080p.BluRay.x264.TrueHD.5.1-FGT
Language                                 : Chinese
Service kind                             : Complete Main
Default                                  : No
Forced                                   : No

Text #1
ID                                       : 4
Format                                   : UTF-8
Codec ID                                 : S_TEXT/UTF8
Codec ID/Info                            : UTF-8 Plain Text
Duration                                 : 1 h 40 min
Bit rate                                 : 39 b/s
Count of elements                        : 1335
Stream size                              : 29.2 KiB (0%)
Title                                    : English-SRT
Language                                 : English
Default                                  : Yes
Forced                                   : Yes

Text #2
ID                                       : 5
Format                                   : PGS
Muxing mode                              : zlib
Codec ID                                 : S_HDMV/PGS
Codec ID/Info                            : Picture based subtitle format used on BDs/HD-DVDs
Duration                                 : 1 h 40 min
Bit rate                                 : 31.7 kb/s
Count of elements                        : 2620
Stream size                              : 22.8 MiB (0%)
Title                                    : English-PGS
Language                                 : English
Default                                  : No
Forced                                   : No

Text #3
ID                                       : 6
Format                                   : PGS
Muxing mode                              : zlib
Codec ID                                 : S_HDMV/PGS
Codec ID/Info                            : Picture based subtitle format used on BDs/HD-DVDs
Duration                                 : 1 h 40 min
Bit rate                                 : 24.7 kb/s
Count of elements                        : 2620
Stream size                              : 17.7 MiB (0%)
Title                                    : Chinese-PGS
Language                                 : Chinese
Default                                  : No
Forced                                   : No


磁力链接:magnet:?xt=urn:btih:20D9EFAAE03E9884BB5B91247F9B5DA83CEE7EB1
附件名称/大小 下载次数 最后更新
Zombiology.2017.1080p.BluRay.x264.TrueHD.5.1-FGT.torrent (57KB)  57 03-05 19:56

最新喜欢:

gongzai906gongza...
冷月梦寒
骑士
骑士
  • 注册日期2017-12-18
  • 发帖数104
  • 影币717枚
  • 魔力值320点
  • 蓝光币13克拉
  • 社区居民
  • 忠实会员
沙发#
发布于:2018-03-05 20:58
谢谢楼主分享
baojingde
精灵王
精灵王
  • 注册日期2015-08-07
  • 发帖数56
  • 影币3102枚
  • 魔力值1643点
  • 蓝光币0克拉
  • 社区居民
  • 忠实会员
板凳#
发布于:2018-03-05 21:19
谢谢楼主分享资源
cxy5300
圣骑士
圣骑士
  • 注册日期2016-11-13
  • 发帖数161
  • 影币1枚
  • 魔力值536点
  • 蓝光币1克拉
  • 社区居民
  • 忠实会员
地板#
发布于:2018-03-05 21:21
不错,谢谢分享哦!
LLL123321
骑士
骑士
  • 注册日期2017-06-28
  • 发帖数42
  • 影币0枚
  • 魔力值410点
  • 蓝光币0克拉
4楼#
发布于:2018-03-05 22:21
fffssfssa
ynhnqlzyh
精灵王
精灵王
  • 注册日期2015-07-28
  • 发帖数726
  • 影币676枚
  • 魔力值1035点
  • 蓝光币99克拉
  • 社区居民
  • 忠实会员
  • 追星一族
5楼#
发布于:2018-03-06 12:31
支持下  谢谢
zenghaowen0
圣骑士
圣骑士
  • 注册日期2016-11-21
  • 发帖数87
  • 影币79枚
  • 魔力值669点
  • 蓝光币1克拉
  • 社区居民
  • 忠实会员
6楼#
发布于:2018-03-06 13:10
谢谢分享
1747699101
精灵王
精灵王
  • 注册日期2016-11-19
  • 发帖数1108
  • 影币1162枚
  • 魔力值712点
  • 蓝光币793克拉
  • 社区居民
  • 忠实会员
7楼#
发布于:2018-03-07 10:51
谢谢分享
liguochuan
精灵王
精灵王
  • 注册日期2015-10-03
  • 发帖数713
  • 影币2922枚
  • 魔力值1625点
  • 蓝光币14克拉
  • 社区居民
  • 忠实会员
8楼#
发布于:2018-03-07 15:19
鬼片 下来看看
shangk743
精灵王
精灵王
  • 注册日期2015-08-01
  • 发帖数124
  • 影币1枚
  • 魔力值1005点
  • 蓝光币1克拉
9楼#
发布于:2018-03-08 11:41
谢谢楼主分享
daiyunchi
圣骑士
圣骑士
  • 注册日期2017-03-08
  • 发帖数123
  • 影币0枚
  • 魔力值776点
  • 蓝光币1克拉
10楼#
发布于:2018-03-08 13:00
非常感谢!
gongzai906
侠客
侠客
  • 注册日期2016-03-02
  • 发帖数61
  • 影币33枚
  • 魔力值128点
  • 蓝光币7克拉
  • 社区居民
11楼#
发布于:2018-03-11 13:09
DDDDDDDDD
Iric
贫民
贫民
  • 注册日期2018-04-08
  • 发帖数4
  • 影币0枚
  • 魔力值2点
  • 蓝光币0克拉
12楼#
发布于:2018-04-08 14:48
这个资源不错嘛
游客
返回顶部