smy
smy
总版主
总版主
  • 注册日期2015-07-27
  • 发帖数1454
  • 影币79546枚
  • 魔力值2485点
  • 蓝光币3克拉
  • 社区居民
  • 忠实会员
  • 喜欢达人
  • 原创写手
阅读:8248回复:188

[SeeHD原创首发]心理罪·城市之光 / 心理罪之城市之光 / 城市之光 / 缉凶者 The Liquidator 2017 4K 2160p WEB-DL x264 AAC-SmY 5.22G

楼主#
更多 发布于:2018-02-03 15:43




◎译  名 心理罪·城市之光 / 心理罪之城市之光 / 城市之光 / 缉凶者
◎片  名 The Liquidator
◎年  代 2017
◎产  地 中国大陆/香港
◎类  别 动作/犯罪/悬疑
◎语  言 汉语普通话
◎上映日期 2017-12-22(中国大陆)
◎豆瓣评分 6.1/10 from 37,299 users
◎豆瓣链接 https://movie.douban.com/subject/26774722/
◎片  长 124分钟
◎导  演 徐纪周 Jizhou Xu
◎主  演 邓超 Chao Deng
阮经天 Ethan Juan
刘诗诗 Shishi Liu
文淇 Qi Wen
林嘉欣 Karena Lam
郭京飞 Jingfei Guo
雷米 Mi Lei
马苏 Su Ma


◎简  介


一起连环凶杀案掀起了城市的狂欢与躁动,数起案件中受害者均遭虐待致死,且充满仪式感,所有线索都与一个人有关——精通犯罪心理学的天才神探方木(邓超 饰)。在与同事米楠(刘诗诗 饰)调查案件时,方木发现曾经是自己高中同学的江亚(阮经天 饰)似乎深藏很多秘密。此时网络上出现名为“城市之光”的用户,以发起投票的方式让大众决定律师任川(郭京飞 饰)的生死,方木、米楠等警察虽然用尽一切办法,依然无法阻止这场“以暴制暴”的黑暗审判,这座城市陷入了混乱的旋涡。紧要关头,方木觉察到江亚的妻子魏巍(林嘉欣 饰)竟然是解锁江亚秘密的重要证人,就在真相即将大白的关键时刻,一场惊人变故突如其来.....
General
Format                         : MPEG-4
Format profile                 : Base Media
Codec ID                       : isom
File size                      : 5.22 GiB
Duration                       : 2h 4mn
Overall bit rate               : 6 011 Kbps
Writing application            : Lavf57.41.100

Video
ID                             : 1
Format                         : AVC
Format/Info                    : Advanced Video Codec
Format profile                 : High@L5.1
Format settings, CABAC         : Yes
Format settings, ReFrames      : 3 frames
Codec ID                       : avc1
Codec ID/Info                  : Advanced Video Coding
Duration                       : 2h 4mn
Bit rate                       : 5 941 Kbps
Width                          : 3 840 pixels
Height                         : 1 608 pixels
Display aspect ratio           : 2.40:1
Frame rate mode                : Variable
Frame rate                     : 24.000 fps
Minimum frame rate             : 23.810 fps
Maximum frame rate             : 24.390 fps
Color space                    : YUV
Chroma subsampling             : 4:2:0
Bit depth                      : 8 bits
Scan type                      : Progressive
Bits/(Pixel*Frame)             : 0.040
Stream size                    : 5.16 GiB (99%)
Color range                    : Limited
Color primaries                : BT.709
Transfer characteristics       : BT.709
Matrix coefficients            : BT.709

Audio
ID                             : 2
Format                         : AAC
Format/Info                    : Advanced Audio Codec
Format profile                 : HE-AAC / LC
Codec ID                       : 40
Duration                       : 2h 4mn
Bit rate mode                  : Constant
Bit rate                       : 62.9 Kbps
Channel(s)                     : 2 channels
Channel positions              : Front: L R
Sampling rate                  : 44.1 KHz / 22.05 KHz
Compression mode               : Lossy
Stream size                    : 55.9 MiB (1%)




 
The Liquidator 2017 4K 2160p WEB-DL x264 AAC-SmY_(SeeHD.Co).torrent
jeffery0214
精灵王
精灵王
  • 注册日期2015-08-18
  • 发帖数84
  • 影币64枚
  • 魔力值2051点
  • 蓝光币2克拉
  • 社区居民
  • 忠实会员
沙发#
发布于:2018-02-03 15:45
沙發............................
橘子萌萌萌
新手
新手
  • 注册日期2016-12-22
  • 发帖数29
  • 影币33枚
  • 魔力值53点
  • 蓝光币0克拉
  • 社区居民
板凳#
发布于:2018-02-03 15:46
llozh2016
新手
新手
  • 注册日期2017-12-16
  • 发帖数13
  • 影币22枚
  • 魔力值20点
  • 蓝光币12克拉
地板#
发布于:2018-02-03 16:27
这个是不是很好看啊
magickd
侠客
侠客
  • 注册日期2016-06-14
  • 发帖数4
  • 影币6枚
  • 魔力值129点
  • 蓝光币0克拉
4楼#
发布于:2018-02-03 16:30
谢谢分享
冷月梦寒
圣骑士
圣骑士
  • 注册日期2017-12-18
  • 发帖数323
  • 影币1349枚
  • 魔力值516点
  • 蓝光币82克拉
  • 社区居民
  • 最爱沙发
  • 忠实会员
5楼#
发布于:2018-02-03 16:35
谢谢楼主分享
tpw815423
精灵王
精灵王
  • 注册日期2015-07-29
  • 发帖数1040
  • 影币4703枚
  • 魔力值2206点
  • 蓝光币122克拉
  • 社区居民
  • 最爱沙发
  • 忠实会员
6楼#
发布于:2018-02-03 16:46
感謝大大無私分享
cn_1130
新手
新手
  • 注册日期2015-10-04
  • 发帖数12
  • 影币17枚
  • 魔力值74点
  • 蓝光币6克拉
7楼#
发布于:2018-02-03 17:14
很精彩的电影,及时出现
demonslash
骑士
骑士
  • 注册日期2016-01-03
  • 发帖数95
  • 影币89枚
  • 魔力值430点
  • 蓝光币51克拉
  • 社区居民
  • 忠实会员
8楼#
发布于:2018-02-03 17:14
谢谢分享 下来看看
百几几
侠客
侠客
  • 注册日期2017-09-28
  • 发帖数86
  • 影币64枚
  • 魔力值186点
  • 蓝光币38克拉
9楼#
发布于:2018-02-03 18:20
谢谢分享
wuping
圣骑士
圣骑士
  • 注册日期2015-09-27
  • 发帖数151
  • 影币55枚
  • 魔力值721点
  • 蓝光币42克拉
  • 社区居民
  • 忠实会员
10楼#
发布于:2018-02-03 18:28
谢谢楼主分享
Kay510
骑士
骑士
  • 注册日期2018-02-03
  • 发帖数25
  • 影币20枚
  • 魔力值368点
  • 蓝光币21克拉
  • 社区居民
11楼#
发布于:2018-02-03 18:37
下载回复
多谢楼主分享,下下来看看,哈哈。。。
maveandy
精灵王
精灵王
  • 注册日期2015-10-04
  • 发帖数912
  • 影币2162枚
  • 魔力值1862点
  • 蓝光币554克拉
  • 社区居民
  • 忠实会员
12楼#
发布于:2018-02-03 21:46
谢谢楼主分享
simplesimon
精灵王
精灵王
  • 注册日期2015-08-10
  • 发帖数223
  • 影币4枚
  • 魔力值1055点
  • 蓝光币11克拉
  • 社区居民
  • 忠实会员
13楼#
发布于:2018-02-03 21:49
谢谢LZ分享。
haoo07
圣骑士
圣骑士
  • 注册日期2015-07-28
  • 发帖数422
  • 影币361枚
  • 魔力值544点
  • 蓝光币237克拉
  • 社区居民
  • 忠实会员
14楼#
发布于:2018-02-03 22:07
谢谢分享
世界之大 无奇不有
上一页
游客
返回顶部