福利发放鸡
论坛版主
论坛版主
  • 注册日期2017-03-24
  • 发帖数701
  • 影币9489枚
  • 魔力值1878点
  • 蓝光币2克拉
  • 社区居民
  • 忠实会员
  • 喜欢达人
  • 原创写手
阅读:409回复:2

[其他]2020年端午节特别节目 端午道安康.20200625.1080i.CCTV3.HDTV.H.264.DD5.1-FLTTH.ts 7.02G

楼主#
更多 发布于:2020-06-26 22:17

图片:SS_00001.jpg

图片:SS_00002.jpg

图片:SS_00003.jpg

图片:SS_00004.jpg

图片:SS_00006.jpg

图片:SS_00005.jpg



General
ID                                       : 24 (0x18)
Complete name                            : 端午道安康.20200625.1080i.CCTV3.HDTV.H.264.DD5.1-FLTTH.ts
Format                                   : MPEG-TS
File size                                : 7.02 GiB
Duration                                 : 1 h 57 min
Overall bit rate mode                    : Variable
Overall bit rate                         : 8 581 kb/s
  
Video
ID                                       : 6030 (0x178E)
Menu ID                                  : 603 (0x25B)
Format                                   : AVC
Format/Info                              : Advanced Video Codec
Format profile                           : High@L4
Format settings                          : CABAC / 3 Ref Frames
Format settings, CABAC                   : Yes
Format settings, Reference frames        : 3 frames
Format settings, GOP                     : M=3, N=15
Codec ID                                 : 27
Duration                                 : 1 h 57 min
Bit rate mode                            : Constant
Bit rate                                 : 7 800 kb/s
Width                                    : 1 920 pixels
Height                                   : 1 080 pixels
Display aspect ratio                     : 16:9
Frame rate                               : 25.000 FPS
Color space                              : YUV
Chroma subsampling                       : 4:2:0
Bit depth                                : 8 bits
Scan type                                : Interlaced
Scan type, store method                  : Separated fields
Scan order                               : Top Field First
Bits/(Pixel*Frame)                       : 0.150
Stream size                              : 6.31 GiB (90%)
Encryption                               : Encrypted
Color range                              : Limited
Color primaries                          : BT.709
Transfer characteristics                 : BT.709
Matrix coefficients                      : BT.709
  
Audio
ID                                       : 6031 (0x178F)
Menu ID                                  : 603 (0x25B)
Format                                   : AC-3
Format/Info                              : Audio Coding 3
Commercial name                          : Dolby Digital
Codec ID                                 : 6
Duration                                 : 1 h 57 min
Bit rate mode                            : Constant
Bit rate                                 : 448 kb/s
Channel(s)                               : 6 channels
Channel layout                           : L R C LFE Ls Rs
Sampling rate                            : 48.0 kHz
Frame rate                               : 31.250 FPS (1536 SPF)
Compression mode                         : Lossy
Delay relative to video                  : -302 ms
Stream size                              : 375 MiB (5%)
Language                                 : English
Service kind                             : Complete Main
Encryption                               : Encrypted
  
Menu
ID                                       : 6035 (0x1793)
Menu ID                                  : 603 (0x25B)
Duration                                 : 1 h 57 min
List                                     : 6030 (0x178E) (AVC) / 6031 (0x178F) (AC-3, English)
Language                                 :  / English
Service name                             : CCTV3综艺高清
Service provider                         : BGCTV
Service type                             : user defined


简介:
    在这样一个特殊的2020,庚子年端午的纪念,已被赋予了更多的精神意义。6月25日晚19:30分,总台2020端午节特别节目《端午道安康》在央视综艺频道播出。作为中央广播电视总台文艺节目品牌“五小晚”中的首个特别节目,节目以端午蕴含的“平安健康”之“安”、全面建成“小康社会”之“康”为创作基础,精心设计、立体展现端午魅力,绽放传统文化之美,传承民族精神之魂。


链接:https://pan.baidu.com/s/1PZCa5MeEG9GzAMAYrlfxfA 提取码:h5p7
dszsdyx
风云使者
风云使者
  • 注册日期2016-09-22
  • 发帖数2435
  • 影币8425枚
  • 魔力值2570点
  • 蓝光币581克拉
  • 社区居民
  • 最爱沙发
  • 忠实会员
沙发#
发布于:2020-06-27 05:40
    在这样一个特殊的2020,庚子年端午的纪念,已被赋予了更多的精神意义。6月25日晚19:30分,总台2020端午节特别节目《端午道安康》在央视综艺频道播出。作为中央广播电视总台文艺节目品牌“五小晚”中的首个特别节目,节目以端午蕴含的“平安健康”之“安”、全面建成“小康社会”之“康”为创作基础,精心设计、立体展现端午魅力,绽放传统文化之美,传承民族精神之魂。
jszj5942
圣骑士
圣骑士
  • 注册日期2016-03-02
  • 发帖数64
  • 影币315枚
  • 魔力值739点
  • 蓝光币2克拉
  • 社区居民
  • 忠实会员
板凳#
发布于:2020-06-27 16:17
端午节的主题节目
游客
返回顶部