福利发放鸡
论坛版主
论坛版主
  • 注册日期2017-03-24
  • 发帖数701
  • 影币9489枚
  • 魔力值1878点
  • 蓝光币2克拉
  • 社区居民
  • 忠实会员
  • 喜欢达人
  • 原创写手
阅读:644回复:2

[其他]2020年俄罗斯红场阅兵特别报道.20200624.1080i.CCTV4.HDTV.H.264.DD5.1-FLTTH.ts 11.4G

楼主#
更多 发布于:2020-06-26 22:07

图片:SS_00007.jpg

图片:SS_00008.jpg

图片:SS_00009.jpg

图片:SS_00010.jpg

图片:SS_00011.jpg

图片:SS_00012.jpg



General
ID                                       : 22 (0x16)
Complete name                            : 2020年俄罗斯红场阅兵特别报道.20200624.1080i.CCTV4.HDTV.H.264.DD5.1-FLTTH.ts
Format                                   : MPEG-TS
File size                                : 11.4 GiB
Duration                                 : 2 h 16 min
Overall bit rate mode                    : Variable
Overall bit rate                         : 12.0 Mb/s
  
Video
ID                                       : 514 (0x202)
Menu ID                                  : 853 (0x355)
Format                                   : AVC
Format/Info                              : Advanced Video Codec
Format profile                           : High@L4.1
Format settings                          : CABAC / 4 Ref Frames
Format settings, CABAC                   : Yes
Format settings, Reference frames        : 4 frames
Codec ID                                 : 27
Duration                                 : 2 h 16 min
Bit rate                                 : 10.9 Mb/s
Maximum bit rate                         : 11.5 Mb/s
Width                                    : 1 920 pixels
Height                                   : 1 080 pixels
Display aspect ratio                     : 16:9
Frame rate                               : 25.000 FPS
Color space                              : YUV
Chroma subsampling                       : 4:2:0
Bit depth                                : 8 bits
Scan type                                : Interlaced
Scan type, store method                  : Separated fields
Scan order                               : Top Field First
Bits/(Pixel*Frame)                       : 0.211
Stream size                              : 10.4 GiB (91%)
Color range                              : Limited
Color primaries                          : BT.709
Transfer characteristics                 : BT.709
Matrix coefficients                      : BT.709
  
Audio
ID                                       : 670 (0x29E)
Menu ID                                  : 853 (0x355)
Format                                   : AC-3
Format/Info                              : Audio Coding 3
Commercial name                          : Dolby Digital
Codec ID                                 : 6
Duration                                 : 2 h 16 min
Bit rate mode                            : Constant
Bit rate                                 : 448 kb/s
Channel(s)                               : 6 channels
Channel layout                           : L R C LFE Ls Rs
Sampling rate                            : 48.0 kHz
Frame rate                               : 31.250 FPS (1536 SPF)
Compression mode                         : Lossy
Delay relative to video                  : -1 s 248 ms
Stream size                              : 437 MiB (4%)
Language                                 : English
Service kind                             : Complete Main
  
Menu
ID                                       : 258 (0x102)
Menu ID                                  : 853 (0x355)
Duration                                 : 2 h 16 min
List                                     : 514 (0x202) (AVC) / 670 (0x29E) (AC-3, English)
Language                                 :  / English
Maximum bit rate                         : 11948400


简介:
    俄罗斯24日在莫斯科红场举行盛大阅兵式,纪念卫国战争胜利75周年。除俄方外,来自中国、白俄罗斯、塞尔维亚、亚美尼亚、哈萨克斯坦等13个国家的仪仗队在红场受阅。
    莫斯科时间10时(北京时间15时),阅兵式在雄壮的乐曲伴奏下拉开帷幕。俄罗斯总统普京在致辞时说,苏联人民为取得卫国战争胜利,英勇走过了付出无数牺牲的道路。“这一过程是清晰的事实,我们必须捍卫这些事实并将其传递给子孙后代。”
    普京还表示,加强各国人民间的友谊和信任至关重要,俄罗斯愿就国际事务中的紧迫问题与他国开展对话合作。“急速变化的当今世界需要建立全面牢固的安全体制,我们只有共同努力,才能保护这个世界免遭种种新威胁。”
    检阅中,约1.3万名来自俄各军兵种的受阅人员组成51个方队正步通过红场。
    在武器装备受阅时,11辆卫国战争时期著名的T-34型坦克,引领着23个装备方队依次入场,展示了200多件武器装备,其中包括伊斯坎德尔-M地对地战术导弹、S-350防空导弹、T-90M坦克等新近装备俄军或完成升级改造的新式武器。在米-26多用途直升机引领下,75架俄各型轰炸机、运输机、预警机、空中加油机、战斗机分成17个编队,自北向南依次飞过红场上空。
    除莫斯科以外,当天在圣彼得堡、加里宁格勒、符拉迪沃斯托克等其他俄27个城市也举行了规模不等的阅兵式。在俄驻叙利亚赫迈米姆空军基地,共有1000多名俄军人和叙利亚政府军官兵参加了阅兵式。
    1945年6月24日,苏联首次在红场举行纪念卫国战争胜利阅兵式。苏联解体后,俄罗斯自1995年起每年5月9日举行卫国战争胜利日阅兵式。今年由于新冠疫情等因素影响,该阅兵式推迟到6月24日举行。


链接:https://pan.baidu.com/s/1JSsI87jWdDRarvHN_2-m7A 提取码:dwdp

最新喜欢:

iamacsiamacs
younglu
精灵王
精灵王
  • 注册日期2015-08-03
  • 发帖数38
  • 影币1279枚
  • 魔力值2665点
  • 蓝光币6克拉
  • 社区居民
  • 忠实会员
沙发#
发布于:2020-06-27 02:04
俄罗斯的阅兵式还是值得一看的,谢谢分享。
淡泊以明志
精灵王
精灵王
  • 注册日期2016-10-05
  • 发帖数134
  • 影币120枚
  • 魔力值1873点
  • 蓝光币7克拉
  • 社区居民
  • 忠实会员
板凳#
发布于:2020-06-27 15:26
疫情期间搞阅兵?不怕死啊
游客
返回顶部