福利发放鸡
论坛版主
论坛版主
  • 注册日期2017-03-24
  • 发帖数660
  • 影币9074枚
  • 魔力值1752点
  • 蓝光币2克拉
  • 社区居民
  • 忠实会员
  • 喜欢达人
  • 原创写手
阅读:320回复:0

[其他]《东方大看点·2020东方卫视元宵特别节目》.20200208.1080i.DRAGON.HDTV.H.264.DD5.1-FLTTH.ts 3.59G

楼主#
更多 发布于:2020-02-09 16:48

图片:SS_00007.jpg

图片:SS_00010.jpg

图片:SS_00011.jpg

图片:SS_00009.jpg

图片:SS_00012.jpg

图片:SS_00008.jpg



General
ID                                       : 29 (0x1D)
Complete name                            : 东方大看点.20200208.1080i.DRAGON.HDTV.H.264.DD5.1-FLTTH.ts
Format                                   : MPEG-TS
File size                                : 3.59 GiB
Duration                                 : 1 h 13 min
Overall bit rate mode                    : Variable
Overall bit rate                         : 7 011 kb/s
  
Video
ID                                       : 6340 (0x18C4)
Menu ID                                  : 634 (0x27A)
Format                                   : AVC
Format/Info                              : Advanced Video Codec
Format profile                           : High@L4
Format settings                          : CABAC / 4 Ref Frames
Format settings, CABAC                   : Yes
Format settings, Reference frames        : 4 frames
Codec ID                                 : 27
Duration                                 : 1 h 13 min
Bit rate mode                            : Constant
Bit rate                                 : 6 100 kb/s
Width                                    : 1 920 pixels
Height                                   : 1 080 pixels
Display aspect ratio                     : 16:9
Frame rate                               : 25.000 FPS
Color space                              : YUV
Chroma subsampling                       : 4:2:0
Bit depth                                : 8 bits
Scan type                                : Interlaced
Scan type, store method                  : Separated fields
Scan order                               : Top Field First
Bits/(Pixel*Frame)                       : 0.118
Stream size                              : 3.08 GiB (86%)
Color range                              : Limited
  
Audio
ID                                       : 6341 (0x18C5)
Menu ID                                  : 634 (0x27A)
Format                                   : AC-3
Format/Info                              : Audio Coding 3
Commercial name                          : Dolby Digital
Codec ID                                 : 6
Duration                                 : 1 h 13 min
Bit rate mode                            : Constant
Bit rate                                 : 640 kb/s
Channel(s)                               : 6 channels
Channel layout                           : L R C LFE Ls Rs
Sampling rate                            : 48.0 kHz
Frame rate                               : 31.250 FPS (1536 SPF)
Compression mode                         : Lossy
Delay relative to video                  : -867 ms
Stream size                              : 336 MiB (9%)
Language                                 : English
Service kind                             : Complete Main
  
Menu
ID                                       : 6345 (0x18C9)
Menu ID                                  : 634 (0x27A)
Duration                                 : 1 h 13 min
List                                     : 6340 (0x18C4) (AVC) / 6341 (0x18C5) (AC-3, English)
Language                                 :  / English



简介:
    这个元宵节注定不平静,新型冠状病毒来袭,全国进入抗疫非常时期。一批批白衣战士、人民子弟兵留下最美逆行背影;一队队抗疫相关人员、基层工作者依然坚守在各自岗位……为感谢并致敬这些平凡而又不凡的抗疫英雄,为进一步引导广大观众增强战胜疫情的勇气和信心,共同打赢抗击疫情阻击战,东方卫视播出《东方大看点·2020东方卫视元宵特别节目》,表达对抗疫情中国必胜的信心和决心,同时企盼英雄早日归来,享受阖家团圆的幸福美好。
    每年元宵晚会有“小春晚”之称,无论是央视还是各大地方卫视,都会选取一些未能在除夕亮相的“遗珠”,或在春晚录制时就让明星嘉宾加录新节目,留到元宵播出。《东方大看点·2020东方卫视元宵特别节目》也采用了套录方式,农历年前录制东方卫视春晚时,本着精益求精的精神,准备了多个歌舞、语言类节目,而在东方春晚制作过程中,导演组发现部分节目更加贴合元宵节的气氛,所以安排在这次元宵特别节目里播出。
    因此,在《2020东方卫视元宵特别节目》中,除了以“阖家团圆庆佳节 万众一心战疫情”为主题的相关内容外,观众们还将看到奥运冠军王励勤、张继科、蔡赟、仲满合唱《我们都是追梦人》,为即将到来的东京奥运会和2022年北京冬奥会加油;赵薇将唱响歌曲《千言万语》;雷佳演唱《明月千里寄相思》;周深带来一曲《All I Ask of You》;阿云嘎演绎歌曲《耶利亚女郎》;王自健、孙佳雨、杨皓宇、张萌、田雷合作小品《卖房子的人》等形式丰富的精彩节目。
    《2020东方卫视元宵特别节目》,阖家团圆庆佳节,万众一心战疫情。


下载地址:
https://pan.baidu.com/s/14YisAZen2PklMIIN2z47fg
游客
返回顶部