福利发放鸡
论坛版主
论坛版主
  • 注册日期2017-03-24
  • 发帖数543
  • 影币7807枚
  • 魔力值1580点
  • 蓝光币2克拉
  • 社区居民
  • 忠实会员
  • 喜欢达人
  • 原创写手
阅读:1291回复:6

[其他]庆祝中华人民共和国成立70周年联欢活动.20191001.REPEAT.2160p.CCTV-4K.UHDTV.HEVC.10bit.HDR.DD5.1-FLTTH.ts 24.8G

楼主#
更多 发布于:2019-10-08 06:07

图片:SS_00026.jpg

图片:SS_00027.jpg

图片:SS_00028.jpg

图片:SS_00029.jpg

图片:SS_00031.jpg

图片:SS_00033.jpg


General
ID                                       : 1 (0x1)
Complete name                            : 庆祝中华人民共和国成立70周年联欢活动.20191001.REPEAT.2160p.CCTV-4K.UHDTV.HEVC.10bit.HDR.DD5.1-FLTTH.ts
Format                                   : MPEG-TS
File size                                : 24.8 GiB
Duration                                 : 1 h 40 min
Overall bit rate mode                    : Variable
Overall bit rate                         : 35.4 Mb/s
  
Video
ID                                       : 7010 (0x1B62)
Menu ID                                  : 701 (0x2BD)
Format                                   : HEVC
Format/Info                              : High Efficiency Video Coding
Format profile                           : Main 10@L5@High
Codec ID                                 : 36
Duration                                 : 1 h 40 min
Bit rate                                 : 33.2 Mb/s
Width                                    : 3 840 pixels
Height                                   : 2 160 pixels
Display aspect ratio                     : 16:9
Frame rate                               : 50.000 FPS
Standard                                 : Component
Color space                              : YUV
Chroma subsampling                       : 4:2:0 (Type 0)
Bit depth                                : 10 bits
Bits/(Pixel*Frame)                       : 0.080
Stream size                              : 23.2 GiB (94%)
Color range                              : Limited
Color primaries                          : BT.2020
Transfer characteristics                 : HLG
Matrix coefficients                      : BT.2020 non-constant
  
Audio
ID                                       : 7011 (0x1B63)
Menu ID                                  : 701 (0x2BD)
Format                                   : AC-3
Format/Info                              : Audio Coding 3
Commercial name                          : Dolby Digital
Codec ID                                 : 129
Duration                                 : 1 h 40 min
Bit rate mode                            : Constant
Bit rate                                 : 448 kb/s
Channel(s)                               : 6 channels
Channel layout                           : L R C LFE Ls Rs
Sampling rate                            : 48.0 kHz
Frame rate                               : 31.250 FPS (1536 SPF)
Bit depth                                : 16 bits
Compression mode                         : Lossy
Delay relative to video                  : -185 ms
Stream size                              : 321 MiB (1%)
Service kind                             : Complete Main

节目介绍:
    《庆祝中华人民共和国成立70周年联欢活动》是为了庆祝中华人民共和国成立70周年,在北京天安门广场举行的盛大联欢活动。
    该活动分为“红旗颂”“我们走在大路上”“在希望的田野上”“领航新时代”4个篇章,由主题表演、中心联欢表演、群众联欢和烟花表演组成。
    该联欢活动于2019年10月1日晚20:00举行。中央广播电视总台综合频道、新闻频道、财经频道、综艺频道、中文国际频道、外语频道等电视频道,中国之声、经济之声、音乐之声、英语环球广播等广播频率,以及新华网等进行现场直播。全中国各级广播电视主频率、主频道,各新闻网站、新媒体平台同步转播。
    整场联欢活动中没有启用任何一位专业的歌唱演员,所有歌曲全都由联欢群众唱响,“去表演化”、“去专业化”正是主创团队的编排理念。张艺谋认为在中华人民共和国的生日当中,要体现出人民的欢乐、人民的庆典,所以他调动了几万人在广场上成为一个真正的欢乐的海洋,体现老百姓的参与,也体现了新时代人民的精神面貌。
    夜空中的烟花创意来源于焰火总设计师蔡国强。他认为北京这一个场地跟别的地方不同,它是一个古代的都城,东西南北非常清晰。长安街能够像个大门一样把这个城市给打开。当晚会宣布开始的时候,最好是能够利用北京的这一个气势、它的格局,感受到一种历史的时间感,时间感就是要有足够大的空间,足够大的空间才能表现时间感。
    在联欢活动中,烟花与舞蹈在低空配合呈现出麦浪滚滚,在高空中,则更是和着音乐节拍将现场表演一次次推向高潮。对此蔡国强表示音乐燃放就是整个表演有音乐,制作团队再把它换成时间码。这些全部是在电脑控制,所以对于制作团队而言整个燃放最重要的是一定要有个编程。和其他演出所不同的是,由于烟花是消耗品,为了最终的呈现效果,所有的演练过程中都没有办法百分百呈现。前两次集中演练是使用电子编程模拟,最后一次集中演练也只是燃放了30%的烟花。


下载地址:
https://pan.baidu.com/s/1nyYGltN6k_je6NXHl2hUpw 提取码:9up9

最新喜欢:

zyyzwyfzyyzwy...
liguochuan
精灵王
精灵王
  • 注册日期2015-10-03
  • 发帖数950
  • 影币3576枚
  • 魔力值2212点
  • 蓝光币56克拉
  • 社区居民
  • 忠实会员
沙发#
发布于:2019-10-08 10:25
这个资源不错
snaildora
侠客
侠客
  • 注册日期2017-05-25
  • 发帖数41
  • 影币4枚
  • 魔力值127点
  • 蓝光币0克拉
  • 社区居民
板凳#
发布于:2019-10-08 11:39
感谢楼主分享
感谢楼主分享
sanmao201612
侠客
侠客
  • 注册日期2019-01-26
  • 发帖数5
  • 影币22枚
  • 魔力值270点
  • 蓝光币0克拉
地板#
发布于:2019-10-08 22:41
您好,请问,联欢晚会,有直播版吗?
zyyzwyf
精灵王
精灵王
  • 注册日期2017-05-17
  • 发帖数1659
  • 影币2567枚
  • 魔力值841点
  • 蓝光币803克拉
  • 社区居民
  • 忠实会员
4楼#
发布于:2019-10-08 23:42
感谢分享,感谢楼主!支持论坛!
福利发放鸡
论坛版主
论坛版主
  • 注册日期2017-03-24
  • 发帖数543
  • 影币7807枚
  • 魔力值1580点
  • 蓝光币2克拉
  • 社区居民
  • 忠实会员
  • 喜欢达人
  • 原创写手
5楼#
发布于:2019-10-09 18:25
sanmao201612:您好,请问,联欢晚会,有直播版吗?回到原帖
有,但在本论坛我们只发重播版。如有直播版下载需求可到PT站搜索。
xingsxi
圣骑士
圣骑士
  • 注册日期2017-03-11
  • 发帖数180
  • 影币847枚
  • 魔力值729点
  • 蓝光币84克拉
6楼#
发布于:2019-10-10 09:30
谢谢楼主分享!!
游客
返回顶部