福利发放鸡
论坛版主
论坛版主
  • 注册日期2017-03-24
  • 发帖数543
  • 影币7807枚
  • 魔力值1580点
  • 蓝光币2克拉
  • 社区居民
  • 忠实会员
  • 喜欢达人
  • 原创写手
阅读:1433回复:12

[其他]庆祝中华人民共和国成立70周年大会.20191001.2160p.CCTV-4K.UHDTV.HEVC.10bit.HDR.DD5.1-FLTTH.ts 46.7G

楼主#
更多 发布于:2019-10-08 06:01

图片:SS_00019.jpg

图片:SS_00021.jpg

图片:SS_00022.jpg

图片:SS_00023.jpg

图片:SS_00024.jpg

图片:SS_00025.jpg


General
ID                                       : 36 (0x24)
Complete name                            : 庆祝中华人民共和国成立70周年大会.20191001.2160p.CCTV-4K.UHDTV.HEVC.10bit.HDR.DD5.1-FLTTH.ts
Format                                   : MPEG-TS
File size                                : 46.7 GiB
Duration                                 : 3 h 8 min
Overall bit rate mode                    : Variable
Overall bit rate                         : 35.4 Mb/s
  
Video
ID                                       : 7010 (0x1B62)
Menu ID                                  : 701 (0x2BD)
Format                                   : HEVC
Format/Info                              : High Efficiency Video Coding
Format profile                           : Main 10@L5@High
Codec ID                                 : 36
Duration                                 : 19 h 33 min
Bit rate                                 : 33.2 Mb/s
Width                                    : 3 840 pixels
Height                                   : 2 160 pixels
Display aspect ratio                     : 16:9
Frame rate                               : 50.000 FPS
Standard                                 : Component
Color space                              : YUV
Chroma subsampling                       : 4:2:0 (Type 0)
Bit depth                                : 10 bits
Bits/(Pixel*Frame)                       : 0.080
Stream size                              : 272 GiB
Color range                              : Limited
Color primaries                          : BT.2020
Transfer characteristics                 : HLG
Matrix coefficients                      : BT.2020 non-constant
  
Audio
ID                                       : 7011 (0x1B63)
Menu ID                                  : 701 (0x2BD)
Format                                   : AC-3
Format/Info                              : Audio Coding 3
Commercial name                          : Dolby Digital
Codec ID                                 : 6
Duration                                 : 3 h 8 min
Bit rate mode                            : Constant
Bit rate                                 : 448 kb/s
Channel(s)                               : 6 channels
Channel layout                           : L R C LFE Ls Rs
Sampling rate                            : 48.0 kHz
Frame rate                               : 31.250 FPS (1536 SPF)
Bit depth                                : 16 bits
Compression mode                         : Lossy
Delay relative to video                  : -289 ms
Stream size                              : 605 MiB (1%)
Service kind                             : Complete Main
  
Menu
ID                                       : 7015 (0x1B67)
Menu ID                                  : 701 (0x2BD)
Duration                                 : 3 h 8 min
List                                     : 7010 (0x1B62) (HEVC) / 7011 (0x1B63) (AC-3)
Service name                             : CCTV-4K超高清
Service provider                         : BGCTV
Service type                             : user defined

节目介绍:
    庆祝中华人民共和国成立70周年活动主要包括:举行庆祝大会、阅兵式和群众游行,举办首都国庆联欢活动,颁授国家勋章和国家荣誉称号,举行向人民英雄敬献花篮仪式,举办国庆招待会,举办国庆文艺晚会,举办庆祝中华人民共和国成立70周年大型成就展,颁发“庆祝中华人民共和国成立70周年”纪念章,制作播出大型文献专题片,发行纪念邮票和纪念币等。
    2019年10月1日,首都天安门举行盛大阅兵式。这是国家重大纪念日阅兵的制度化安排。此次阅兵是中国特色社会主义进入新时代的首次国庆阅兵,也是人民军队改革重塑后的首次集中亮相。
    有别于纪念抗战胜利阅兵、“沙场”阅兵和海上阅兵等专题阅兵,此次阅兵将在充分展示改革强军成就的同时,凸显国庆阅兵的庆典特色,规模上要比庆祝新中国成立50周年、60周年阅兵和纪念抗战胜利70周年阅兵大一些。
    本次阅兵部队由徒步方队、装备方队和空中梯队三部分组成。徒步方队重点体现我军重塑重构后新的领导指挥体制、规模结构和力量编成,展示我国“三结合”的武装力量组成;装备方队重点体现我国国防科技工业自主创新能力和武器装备研发水平,受阅武器装备全部为国产现役主战装备,不少装备将是首次亮相;空中梯队重点体现我军航空兵发展体系化水平,展示空中作战新质能力和强大实力。
    群众游行活动采用“讲故事”的方式,每个方阵展现一个场景、讲述一段故事,小方阵连成大画卷,小场景反映大时代,小故事传递大道理,在长安街上徐徐展开一幅流动的新中国发展、新时代奋进画卷。
    群众游行活动中,游行群众涵盖各行各业、各族各界。彩车主体形象精准选取生动传神、便于理解的人物形象和造型载体,将传统文化与现代艺术充分结合。天安门广场布置“红飘带”主题景观雕塑,广场东西两侧平行悬挂70个红色充气灯笼。广场内还设置临时观礼台,让更多的各界群众能够到现场观礼。
    首都国庆联欢活动中,3290名联欢群众将在金水桥南端的长安街上,通过手持发光屏和表演道具艺术化表现中华民族从站起来、富起来到强起来的伟大飞跃,有关省区市的特色群众艺术团体3650人将生动呈现各地特色文化。主题表演区东西两侧设立“幸福生活”“同心筑梦”“时代风采”等10个主题的群众联欢区块,让联欢群众自发表达爱国情感。烟花表演通过高、中、低空烟花燃放和特殊烟花装置表演,分波次、多新意地展现烟花艺术的魅力。
    联欢活动充分体现群众性,主题表演、中心联欢表演、群众联欢全部都由各界群众来承担,联欢活动上没有一名专业的歌唱演员,所有歌曲演唱全部都由联欢群众来完成。


下载地址:
https://pan.baidu.com/s/1uj0WEZolow-icWAnBg79FQ 提取码:mpbh

最新喜欢:

SngKinSngKin
liguochuan
精灵王
精灵王
  • 注册日期2015-10-03
  • 发帖数950
  • 影币3576枚
  • 魔力值2212点
  • 蓝光币56克拉
  • 社区居民
  • 忠实会员
沙发#
发布于:2019-10-08 10:28
不错的资源
sanmao201612
侠客
侠客
  • 注册日期2019-01-26
  • 发帖数5
  • 影币22枚
  • 魔力值270点
  • 蓝光币0克拉
板凳#
发布于:2019-10-08 12:50
这是好久录的?有直播版吗?
某些人
精灵王
精灵王
  • 注册日期2016-12-31
  • 发帖数300
  • 影币319枚
  • 魔力值1643点
  • 蓝光币13克拉
  • 社区居民
  • 忠实会员
地板#
发布于:2019-10-08 16:17
伟大的楼主
SngKin
终生无尚荣耀蓝光粉
终生无尚荣耀蓝光粉
  • 注册日期2016-01-25
  • 发帖数741
  • 影币15812枚
  • 魔力值3318点
  • 蓝光币1026克拉
  • 社区居民
  • 忠实会员
4楼#
发布于:2019-10-08 16:38
谢谢楼主分享 /~
coffeerain
侠客
侠客
  • 注册日期2018-02-11
  • 发帖数22
  • 影币49枚
  • 魔力值223点
  • 蓝光币11克拉
  • 社区居民
  • 忠实会员
5楼#
发布于:2019-10-08 19:50
谢谢楼主分享 /~
福利发放鸡
论坛版主
论坛版主
  • 注册日期2017-03-24
  • 发帖数543
  • 影币7807枚
  • 魔力值1580点
  • 蓝光币2克拉
  • 社区居民
  • 忠实会员
  • 喜欢达人
  • 原创写手
6楼#
发布于:2019-10-08 21:01
sanmao201612:这是好久录的?有直播版吗?回到原帖
直播版里面有。
talentzb
新手
新手
  • 注册日期2019-05-20
  • 发帖数14
  • 影币24枚
  • 魔力值52点
  • 蓝光币0克拉
  • 社区居民
  • 忠实会员
7楼#
发布于:2019-10-08 21:18
支持4K高清
xiaomeige
侠客
侠客
  • 注册日期2018-01-23
  • 发帖数9
  • 影币27枚
  • 魔力值130点
  • 蓝光币1克拉
  • 社区居民
  • 忠实会员
8楼#
发布于:2019-10-08 22:11
果然咱们论坛的资源最完美
wylwfs
圣骑士
圣骑士
  • 注册日期2017-11-06
  • 发帖数182
  • 影币164枚
  • 魔力值725点
  • 蓝光币20克拉
  • 社区居民
  • 忠实会员
9楼#
发布于:2019-10-08 23:33
咱们论坛的资源最完美
xiaomeige
侠客
侠客
  • 注册日期2018-01-23
  • 发帖数9
  • 影币27枚
  • 魔力值130点
  • 蓝光币1克拉
  • 社区居民
  • 忠实会员
10楼#
发布于:2019-10-09 15:33
不能在线播放,其他的资源都可以,不知道为什么
福利发放鸡
论坛版主
论坛版主
  • 注册日期2017-03-24
  • 发帖数543
  • 影币7807枚
  • 魔力值1580点
  • 蓝光币2克拉
  • 社区居民
  • 忠实会员
  • 喜欢达人
  • 原创写手
11楼#
发布于:2019-10-09 18:24
xiaomeige:不能在线播放,其他的资源都可以,不知道为什么回到原帖
播CCTV4版
hhxy0001
侠客
侠客
  • 注册日期2017-09-11
  • 发帖数29
  • 影币18枚
  • 魔力值116点
  • 蓝光币2克拉
12楼#
发布于:2019-10-13 14:04
老大,我怎么看不到要下载的文件
游客
返回顶部