福利发放鸡
论坛版主
论坛版主
  • 注册日期2017-03-24
  • 发帖数543
  • 影币7807枚
  • 魔力值1580点
  • 蓝光币2克拉
  • 社区居民
  • 忠实会员
  • 喜欢达人
  • 原创写手
阅读:559回复:2

[演唱会]2019江山如画国庆音乐会.20190930.1080i.CCTV1.HDTV.H.264.DD5.1-FLTTH.ts 5.90G

楼主#
更多 发布于:2019-10-08 05:33

图片:SS_00001.jpg

图片:SS_00003.jpg

图片:SS_00004.jpg

图片:SS_00002.jpg

图片:SS_00005.jpg

图片:SS_00006.jpg


General
ID                                       : 1 (0x1)
Complete name                            : 2019江山如画国庆音乐会.20190930.1080i.CCTV1.HDTV.H.264.DD5.1-FLTTH.ts
Format                                   : MPEG-TS
File size                                : 5.90 GiB
Duration                                 : 1 h 40 min
Overall bit rate mode                    : Variable
Overall bit rate                         : 8 414 kb/s
  
Video
ID                                       : 256 (0x100)
Menu ID                                  : 1 (0x1)
Format                                   : AVC
Format/Info                              : Advanced Video Codec
Format profile                           : High@L4
Format settings                          : CABAC / 2 Ref Frames
Format settings, CABAC                   : Yes
Format settings, Reference frames        : 2 frames
Format settings, GOP                     : M=3, N=12
Codec ID                                 : 27
Duration                                 : 1 h 40 min
Bit rate                                 : 7 546 kb/s
Width                                    : 1 920 pixels
Height                                   : 1 080 pixels
Display aspect ratio                     : 16:9
Frame rate                               : 25.000 FPS
Color space                              : YUV
Chroma subsampling                       : 4:2:0
Bit depth                                : 8 bits
Scan type                                : Interlaced
Scan type, store method                  : Separated fields
Scan order                               : Top Field First
Bits/(Pixel*Frame)                       : 0.146
Stream size                              : 5.29 GiB (90%)
  
Audio
ID                                       : 257 (0x101)
Menu ID                                  : 1 (0x1)
Format                                   : AC-3
Format/Info                              : Audio Coding 3
Commercial name                          : Dolby Digital
Codec ID                                 : 129
Duration                                 : 1 h 40 min
Bit rate mode                            : Constant
Bit rate                                 : 448 kb/s
Channel(s)                               : 6 channels
Channel layout                           : L R C LFE Ls Rs
Sampling rate                            : 48.0 kHz
Frame rate                               : 31.250 FPS (1536 SPF)
Bit depth                                : 16 bits
Compression mode                         : Lossy
Delay relative to video                  : -537 ms
Stream size                              : 322 MiB (5%)
Language                                 : English
Service kind                             : Complete Main
  
Menu
ID                                       : 4096 (0x1000)
Menu ID                                  : 1 (0x1)
Duration                                 : 1 h 40 min
List                                     : 256 (0x100) (AVC) / 257 (0x101) (AC-3, English)
Language                                 :  / English
Service name                             : CCTV1
Service provider                         : BGCTV
Service type                             : user defined

节目简介:
    为庆祝新中国成立七十周年,音乐频道特别策划《2019江山如画国庆音乐会》,旨为观众带来技巧与艺术魅力相结合的视听盛宴。音乐会阵容强大,现场群星闪耀、星光璀璨。殷秀梅、蒋大为、腾格尔、王丽达、凤凰传奇、吴碧霞、阎维文、王宏伟、平安、陈思思等众多歌手艺术家共同携手,与中国爱乐乐团一同为大家带来一场超高水准的音乐会。

链接:https://pan.baidu.com/s/18RZPlG8nXNoaTj2y1VajqQ 提取码:cspx

最新喜欢:

zyyzwyfzyyzwy...
zyyzwyf
精灵王
精灵王
  • 注册日期2017-05-17
  • 发帖数1659
  • 影币2567枚
  • 魔力值841点
  • 蓝光币803克拉
  • 社区居民
  • 忠实会员
沙发#
发布于:2019-10-08 23:09
感谢分享,感谢楼主!支持论坛!
wylwfs
圣骑士
圣骑士
  • 注册日期2017-11-06
  • 发帖数182
  • 影币164枚
  • 魔力值725点
  • 蓝光币20克拉
  • 社区居民
  • 忠实会员
板凳#
发布于:2019-10-08 23:34
感谢分享,感谢楼主!支持论坛
游客
返回顶部