福利发放鸡
论坛版主
论坛版主
  • 注册日期2017-03-24
  • 发帖数543
  • 影币7807枚
  • 魔力值1580点
  • 蓝光币2克拉
  • 社区居民
  • 忠实会员
  • 喜欢达人
  • 原创写手
阅读:676回复:1

[其他]《向着伟大梦想》庆祝中华人民共和国成立70周年阅兵专题文艺演出.20191001.1080i.CCTV3.HDTV.H.264.DD5.1-FLTTH.ts 5.67G

楼主#
更多 发布于:2019-10-08 05:28

图片:SS_00013.jpg

图片:SS_00014.jpg

图片:SS_00015.jpg

图片:SS_00016.jpg

图片:SS_00017.jpg

图片:SS_00018.jpg


General
ID                                       : 1 (0x1)
Complete name                            : 向着伟大梦想.20191001.1080i.CCTV3.HDTV.H.264.DD5.1-FLTTH.ts
Format                                   : MPEG-TS
File size                                : 5.67 GiB
Duration                                 : 1 h 30 min
Overall bit rate mode                    : Variable
Overall bit rate                         : 8 953 kb/s
   
Video
ID                                       : 256 (0x100)
Menu ID                                  : 1 (0x1)
Format                                   : AVC
Format/Info                              : Advanced Video Codec
Format profile                           : High@L4
Format settings                          : CABAC / 3 Ref Frames
Format settings, CABAC                   : Yes
Format settings, Reference frames        : 3 frames
Format settings, GOP                     : M=3, N=15
Codec ID                                 : 27
Duration                                 : 1 h 30 min
Bit rate mode                            : Constant
Bit rate                                 : 7 800 kb/s
Width                                    : 1 920 pixels
Height                                   : 1 080 pixels
Display aspect ratio                     : 16:9
Frame rate                               : 25.000 FPS
Color space                              : YUV
Chroma subsampling                       : 4:2:0
Bit depth                                : 8 bits
Scan type                                : Interlaced
Scan type, store method                  : Separated fields
Scan order                               : Top Field First
Bits/(Pixel*Frame)                       : 0.150
Stream size                              : 5.10 GiB (90%)
Color range                              : Limited
Color primaries                          : BT.709
Transfer characteristics                 : BT.709
Matrix coefficients                      : BT.709
   
Audio
ID                                       : 257 (0x101)
Menu ID                                  : 1 (0x1)
Format                                   : AC-3
Format/Info                              : Audio Coding 3
Commercial name                          : Dolby Digital
Codec ID                                 : 129
Duration                                 : 1 h 30 min
Bit rate mode                            : Constant
Bit rate                                 : 448 kb/s
Channel(s)                               : 6 channels
Channel layout                           : L R C LFE Ls Rs
Sampling rate                            : 48.0 kHz
Frame rate                               : 31.250 FPS (1536 SPF)
Bit depth                                : 16 bits
Compression mode                         : Lossy
Delay relative to video                  : -180 ms
Stream size                              : 290 MiB (5%)
Language                                 : English
Service kind                             : Complete Main
   
Menu
ID                                       : 4096 (0x1000)
Menu ID                                  : 1 (0x1)
Duration                                 : 1 h 30 min
List                                     : 256 (0x100) (AVC) / 257 (0x101) (AC-3, English)
Language                                 :  / English
Service name                             : CCTV3
Service provider                         : BGCTV
Service type                             : user defined

节目简介:
    在庆祝中华人民共和国成立70周年阅兵部队受阅之际,解放军新闻传播中心广播电视部和央视综艺频道,组织了阎维文、蔡国庆、吴京、张译、卫晨霞、李思思、尼格买提、周炜、白雪、霍勇、梁召今、王莹、平安、乌兰图雅、云飞等军地文艺工作者,携手曾参加过往届阅兵的受阅老兵代表,带着全国人民的亲切问候和美好祝愿,深入阅兵训练基地,带去了一台精彩纷呈的《向着伟大梦想》慰问文艺演出。该节目于10月1日当天在CCTV-7国防军事频道和CCTV-3综艺频道播出。


链接:https://pan.baidu.com/s/1KguCfcKQsu1Fzqd9ccL8xw 提取码:vif7

最新喜欢:

zyyzwyfzyyzwy...
zyyzwyf
精灵王
精灵王
  • 注册日期2017-05-17
  • 发帖数1659
  • 影币2567枚
  • 魔力值841点
  • 蓝光币803克拉
  • 社区居民
  • 忠实会员
沙发#
发布于:2019-10-08 23:13
感谢分享,感谢楼主!支持论坛!
游客
返回顶部