福利发放鸡
论坛版主
论坛版主
  • 注册日期2017-03-24
  • 发帖数543
  • 影币7807枚
  • 魔力值1580点
  • 蓝光币2克拉
  • 社区居民
  • 忠实会员
  • 喜欢达人
  • 原创写手
阅读:327回复:2

[其他]礼赞最美奋斗者.20191002.1080i.CCTV1.HDTV.H.264.DD5.1-FLTTH.ts 5.13G

楼主#
更多 发布于:2019-10-08 05:22

图片:SS_00007.jpg

图片:SS_00008.jpg

图片:SS_00009.jpg

图片:SS_00010.jpg

图片:SS_00011.jpg

图片:SS_00012.jpg


General
ID                                       : 24 (0x18)
Complete name                            : 礼赞最美奋斗者.20191002.1080i.CCTV1.HDTV.H.264.DD5.1-FLTTH.ts
Format                                   : MPEG-TS
File size                                : 5.13 GiB
Duration                                 : 1 h 31 min
Overall bit rate mode                    : Variable
Overall bit rate                         : 8 034 kb/s
  
Video
ID                                       : 6010 (0x177A)
Menu ID                                  : 601 (0x259)
Format                                   : AVC
Format/Info                              : Advanced Video Codec
Format profile                           : High@L4
Format settings                          : CABAC / 2 Ref Frames
Format settings, CABAC                   : Yes
Format settings, Reference frames        : 2 frames
Format settings, GOP                     : M=3, N=12
Codec ID                                 : 27
Duration                                 : 1 h 31 min
Bit rate                                 : 7 184 kb/s
Width                                    : 1 920 pixels
Height                                   : 1 080 pixels
Display aspect ratio                     : 16:9
Frame rate                               : 25.000 FPS
Color space                              : YUV
Chroma subsampling                       : 4:2:0
Bit depth                                : 8 bits
Scan type                                : Interlaced
Scan type, store method                  : Separated fields
Scan order                               : Top Field First
Bits/(Pixel*Frame)                       : 0.139
Stream size                              : 4.59 GiB (89%)
  
Audio
ID                                       : 6011 (0x177B)
Menu ID                                  : 601 (0x259)
Format                                   : AC-3
Format/Info                              : Audio Coding 3
Commercial name                          : Dolby Digital
Codec ID                                 : 6
Duration                                 : 1 h 31 min
Bit rate mode                            : Constant
Bit rate                                 : 448 kb/s
Channel(s)                               : 6 channels
Channel layout                           : L R C LFE Ls Rs
Sampling rate                            : 48.0 kHz
Frame rate                               : 31.250 FPS (1536 SPF)
Bit depth                                : 16 bits
Compression mode                         : Lossy
Delay relative to video                  : -201 ms
Stream size                              : 293 MiB (6%)
Language                                 : English
Service kind                             : Complete Main
  
Menu
ID                                       : 6015 (0x177F)
Menu ID                                  : 601 (0x259)
Duration                                 : 1 h 31 min
List                                     : 6010 (0x177A) (AVC) / 6011 (0x177B) (AC-3, English)
Language                                 :  / English
Service name                             : CCTV1综合高清
Service provider                         : BGCTV
Service type                             : user defined

节目简介:
    70年风雨兼程,70年沧桑巨变,回首新中国的非凡历程,那些辉煌的成就总被一些闪亮的名字照亮。70年来,无数奋斗者兢兢业业、脚踏实地,扎根基层、奉献人民,在平凡岗位上创造非凡业绩,为国家富强、民族振兴、社会和谐、人民幸福做出了不平凡的贡献。他们是民族的脊梁,是时代的先锋,是祖国的骄傲,是最美的奋斗者!


链接:https://pan.baidu.com/s/1ABUh4EkINS__cyhrxRXE2Q 提取码:84k2

最新喜欢:

zyyzwyfzyyzwy...
平淡老王
骑士
骑士
  • 注册日期2019-02-12
  • 发帖数20
  • 影币110枚
  • 魔力值338点
  • 蓝光币0克拉
沙发#
发布于:2019-10-08 05:52
谢谢分享!
zyyzwyf
精灵王
精灵王
  • 注册日期2017-05-17
  • 发帖数1659
  • 影币2567枚
  • 魔力值841点
  • 蓝光币803克拉
  • 社区居民
  • 忠实会员
板凳#
发布于:2019-10-08 23:36
感谢分享,感谢楼主!支持论坛!
游客
返回顶部