福利发放鸡
论坛版主
论坛版主
  • 注册日期2017-03-24
  • 发帖数549
  • 影币7932枚
  • 魔力值1618点
  • 蓝光币2克拉
  • 社区居民
  • 忠实会员
  • 喜欢达人
  • 原创写手
阅读:1787回复:3

[其他]《今天是你的生日——庆祝新中国成立70周年优秀国产影片特别推介》.20190928.1080i.CCTV3.HDTV.H.264.DD5.1-FLTTH.ts 6.28G

楼主#
更多 发布于:2019-09-30 12:46

图片:SS_00001.jpg

图片:SS_00002.jpg

图片:SS_00003.jpg

图片:SS_00004.jpg

图片:SS_00005.jpg

图片:SS_00006.jpg


General
ID                                       : 1 (0x1)
Complete name                            : 今天是你的生日.20190928.1080i.CCTV3.HDTV.H.264.DD5.1-FLTTH.ts
Format                                   : MPEG-TS
File size                                : 6.28 GiB
Duration                                 : 1 h 40 min
Overall bit rate mode                    : Variable
Overall bit rate                         : 8 953 kb/s
  
Video
ID                                       : 256 (0x100)
Menu ID                                  : 1 (0x1)
Format                                   : AVC
Format/Info                              : Advanced Video Codec
Format profile                           : High@L4
Format settings                          : CABAC / 3 Ref Frames
Format settings, CABAC                   : Yes
Format settings, Reference frames        : 3 frames
Format settings, GOP                     : M=3, N=15
Codec ID                                 : 27
Duration                                 : 1 h 40 min
Bit rate mode                            : Constant
Bit rate                                 : 7 800 kb/s
Width                                    : 1 920 pixels
Height                                   : 1 080 pixels
Display aspect ratio                     : 16:9
Frame rate                               : 25.000 FPS
Color space                              : YUV
Chroma subsampling                       : 4:2:0
Bit depth                                : 8 bits
Scan type                                : Interlaced
Scan type, store method                  : Separated fields
Scan order                               : Top Field First
Bits/(Pixel*Frame)                       : 0.150
Stream size                              : 5.65 GiB (90%)
Color range                              : Limited
Color primaries                          : BT.709
Transfer characteristics                 : BT.709
Matrix coefficients                      : BT.709
  
Audio
ID                                       : 257 (0x101)
Menu ID                                  : 1 (0x1)
Format                                   : AC-3
Format/Info                              : Audio Coding 3
Commercial name                          : Dolby Digital
Codec ID                                 : 129
Duration                                 : 1 h 40 min
Bit rate mode                            : Constant
Bit rate                                 : 448 kb/s
Channel(s)                               : 6 channels
Channel layout                           : L R C LFE Ls Rs
Sampling rate                            : 48.0 kHz
Frame rate                               : 31.250 FPS (1536 SPF)
Bit depth                                : 16 bits
Compression mode                         : Lossy
Delay relative to video                  : -158 ms
Stream size                              : 322 MiB (5%)
Language                                 : English
Service kind                             : Complete Main
  
Menu
ID                                       : 4096 (0x1000)
Menu ID                                  : 1 (0x1)
Duration                                 : 1 h 40 min
List                                     : 256 (0x100) (AVC) / 257 (0x101) (AC-3, English)
Language                                 :  / English
Service name                             : CCTV3
Service provider                         : BGCTV
Service type                             : user defined

节目简介:
    《今天是你的生日——庆祝新中国成立70周年优秀国产影片特别推介》
    2019年是新中国成立70周年,为响应习近平总书记 “坚定文化自信、把握时代脉搏、聆听时代声音,坚持与时代同步伐、以人民为中心、以精品奉献人民、用明德引领风尚”的讲话精神,由国家电影局和中央广播电视总台联合主办的“今天是你的生日——庆祝新中国成立70周年优秀国产影片特别推介”晚会日前在京完成录制,于9月28日晚黄金时间在中央电视台综艺频道(CCTV-3)和电影频道(CCTV-6)播出。
    文艺是时代前进的号角,最能代表一个时代的风貌,最能引领一个时代的风气。波澜壮阔的70年来,中国电影立时代之潮头、发时代之先声,用光影激荡不竭不息的精神力量。 晚会以2019年7部献礼电影为线索,邀请了中国电影行业杰出的文艺工作者及社会热点人物,来共同见证属于中国电影事业的光荣与辉煌。推动文艺繁荣发展,最根本的是要创作生产出无愧于我们这个伟大民族、伟大时代的优秀作品。2019年,中国电影人推出了一系列讴歌党、讴歌祖国、讴歌人民、讴歌英雄的精品力作。晚会向观众重点推荐了即将上映的影片《攀登者》、《中国机长》和《我和我的祖国》。


链接:https://pan.baidu.com/s/1DKzkdFPUOu_V8NcQtP7low 提取码:g55j

最新喜欢:

5833247583324... iamacsiamacs zyyzwyfzyyzwy...
zyyzwyf
精灵王
精灵王
  • 注册日期2017-05-17
  • 发帖数1664
  • 影币2583枚
  • 魔力值862点
  • 蓝光币803克拉
  • 社区居民
  • 忠实会员
沙发#
发布于:2019-10-01 21:26
感谢达人分享好资源
zh1968
精灵王
精灵王
  • 注册日期2016-11-17
  • 发帖数382
  • 影币3834枚
  • 魔力值1794点
  • 蓝光币71克拉
  • 社区居民
  • 忠实会员
板凳#
发布于:2019-10-01 22:47
谢楼主分享
报警器
侠客
侠客
  • 注册日期2018-01-27
  • 发帖数82
  • 影币90枚
  • 魔力值176点
  • 蓝光币53克拉
  • 社区居民
地板#
发布于:2019-10-06 07:43
感谢楼主分享优秀影片
游客
返回顶部