福利发放鸡
论坛版主
论坛版主
  • 注册日期2017-03-24
  • 发帖数525
  • 影币7527枚
  • 魔力值1560点
  • 蓝光币2克拉
  • 社区居民
  • 忠实会员
  • 喜欢达人
  • 原创写手
阅读:983回复:7

[其他]《闪亮的名字 最美新时代革命军人发布仪式》.20190731.1080i.CCTV1.HDTV.H.264.DD5.1-FLTTH.ts 3.60G

楼主#
更多 发布于:2019-08-07 20:09

图片:SS_00001.jpg

图片:SS_00002.jpg

图片:SS_00003.jpg

图片:SS_00004.jpg

图片:SS_00005.jpg

图片:SS_00006.jpg



General
ID                                       : 1 (0x1)
Complete name                            : 闪亮的名字.20190731.1080i.CCTV1.HDTV.H.264.DD5.1-FLTTH.ts
Format                                   : MPEG-TS
File size                                : 3.60 GiB
Duration                                 : 1 h 1 min
Overall bit rate mode                    : Variable
Overall bit rate                         : 8 414 kb/s
  
Video
ID                                       : 256 (0x100)
Menu ID                                  : 1 (0x1)
Format                                   : AVC
Format/Info                              : Advanced Video Codec
Format profile                           : High@L4
Format settings                          : CABAC / 2 Ref Frames
Format settings, CABAC                   : Yes
Format settings, Reference frames        : 2 frames
Format settings, GOP                     : M=3, N=12
Codec ID                                 : 27
Duration                                 : 1 h 1 min
Bit rate                                 : 7 546 kb/s
Width                                    : 1 920 pixels
Height                                   : 1 080 pixels
Display aspect ratio                     : 16:9
Frame rate                               : 25.000 FPS
Color space                              : YUV
Chroma subsampling                       : 4:2:0
Bit depth                                : 8 bits
Scan type                                : Interlaced
Scan type, store method                  : Separated fields
Scan order                               : Top Field First
Bits/(Pixel*Frame)                       : 0.146
Stream size                              : 3.22 GiB (90%)
  
Audio
ID                                       : 257 (0x101)
Menu ID                                  : 1 (0x1)
Format                                   : AC-3
Format/Info                              : Audio Coding 3
Commercial name                          : Dolby Digital
Codec ID                                 : 129
Duration                                 : 1 h 1 min
Bit rate mode                            : Constant
Bit rate                                 : 448 kb/s
Channel(s)                               : 6 channels
Channel layout                           : L R C LFE Ls Rs
Sampling rate                            : 48.0 kHz
Frame rate                               : 31.250 FPS (1536 SPF)
Bit depth                                : 16 bits
Compression mode                         : Lossy
Delay relative to video                  : -557 ms
Stream size                              : 196 MiB (5%)
Language                                 : English
Service kind                             : Complete Main
节目简介:
    《闪亮的名字 最美新时代革命军人发布仪式》 (20190731)
    听党指挥,能打胜仗,作风优良。新时代,中国军人紧跟党和人民事业发展步伐,与祖国共成长、共奋斗,在实现强军目标、建设世界一流军队伟大征程中阔步前行!本期节目,一起聆听“最美新时代革命军人”的讲述,一起感受强国强军的时代脉动,为中国军人点赞喝彩!


链接:https://pan.baidu.com/s/1NTAJ_Q63380LmvN6cMeXVQ 提取码:d3v6

最新喜欢:

zyyzwyfzyyzwy... SngKinSngKin
SngKin
终生无尚荣耀蓝光粉
终生无尚荣耀蓝光粉
  • 注册日期2016-01-25
  • 发帖数733
  • 影币15601枚
  • 魔力值3260点
  • 蓝光币1026克拉
  • 社区居民
  • 忠实会员
沙发#
发布于:2019-08-07 23:09
感谢楼主分享!
zyyzwyf
精灵王
精灵王
  • 注册日期2017-05-17
  • 发帖数1612
  • 影币2483枚
  • 魔力值807点
  • 蓝光币800克拉
  • 社区居民
  • 忠实会员
板凳#
发布于:2019-08-08 03:39
感谢分享,感谢楼主!支持论坛!
xyasj
精灵王
精灵王
  • 注册日期2017-01-07
  • 发帖数400
  • 影币475枚
  • 魔力值1570点
  • 蓝光币78克拉
  • 社区居民
  • 忠实会员
地板#
发布于:2019-08-08 17:56
学习一下,感谢分享!
冷月梦寒
精灵王
精灵王
  • 注册日期2017-12-18
  • 发帖数1420
  • 影币3650枚
  • 魔力值1063点
  • 蓝光币158克拉
  • 社区居民
  • 最爱沙发
  • 忠实会员
4楼#
发布于:2019-08-08 20:25
谢谢楼主分享
weevil
终生无尚荣耀蓝光粉
终生无尚荣耀蓝光粉
  • 注册日期2016-01-07
  • 发帖数32
  • 影币15623枚
  • 魔力值1591点
  • 蓝光币390克拉
  • 社区居民
  • 忠实会员
5楼#
发布于:2019-08-09 06:41
谢谢楼主分享
zh1968
精灵王
精灵王
  • 注册日期2016-11-17
  • 发帖数344
  • 影币3448枚
  • 魔力值1627点
  • 蓝光币71克拉
  • 社区居民
  • 忠实会员
6楼#
发布于:2019-08-12 13:17
谢楼主分享
音乐之声9
圣骑士
圣骑士
  • 注册日期2018-10-06
  • 发帖数126
  • 影币118枚
  • 魔力值610点
  • 蓝光币63克拉
  • 社区居民
  • 忠实会员
7楼#
发布于:2019-08-13 14:54
八一军旗高高飘扬!谢谢分享。
游客
返回顶部