jimmy71960
圣骑士
圣骑士
  • 注册日期2015-08-19
  • 发帖数34
  • 影币96枚
  • 魔力值770点
  • 蓝光币0克拉
  • 社区居民
阅读:1619回复:1

[剧情]乱云 Midaregumo.1967.1080p.WEBRip.DD2.0.x264-SbR(成濑巳喜男遗作)

楼主#
更多 发布于:2019-08-03 21:51

图片:p2319853826.jpg



◎译  名 乱云 / Midaregumo / Scattered Clouds
◎片  名 乱れ雲
◎年  代 1967
◎产  地 日本
◎类  别 剧情
◎语  言 日语
◎上映日期 1967-11-18(日本)
IMDb评分 7.9/10 from 728 users
IMDb链接 https://www.imdb.com/title/tt0061971/
◎豆瓣评分 8.5/10 from 3057 users
◎豆瓣链接 https://movie.douban.com/subject/1302082/
◎片  长 108分钟
◎导  演 成濑巳喜男 Mikio Naruse
◎编  剧 山田信夫 Nobuo Yamada
◎主  演 司叶子 Yôko Tsukasa
加山雄三 Yûzô Kayama
森光子 Mitsuko Mori
滨美枝 Mie Hama
草笛光子 Mitsuko Kusabue
加东大介 Daisuke Katô
土屋嘉男 Yoshio Tsuchiya
藤木悠 Yû Fujiki
中丸忠雄 Nakamaru Tadao
中村伸郎 Nobuo Nakamura
村上冬树 Fuyuki Murakami



◎标  签 日本 | 成濑巳喜男 | 司叶子 | 日本电影 | 剧情  

◎简  介

由美子(司叶子 饰)正在憧憬着美好的未来,此时她已怀有身孕,接下来也将和供职于通商产业省的丈夫江田宏(土屋嘉男 饰)调赴美国大使馆工作。但一场突如其来的灾难摧毁了这一切,江田不慎死于车祸,法庭判定事故由不可抗拒力造成,免予追究责任。由美子对肇事者三岛史郎(加山雄三 饰)分外憎恨,她拒绝了三岛的参拜和赔偿请求,忍痛拿掉孩子,回到家乡青森在姐姐的旅馆里工作谋生。
三岛因车祸的原因被调离东京总部,相恋多年的女友也弃他而去。怀着一份愧疚之心,他定期为由美子寄去抚恤金。不久两人于青森相遇,一个不愿再回首过去,一个希望求得对方原谅。两个倍受创伤的人慢慢地走到一起……
本片为导演成濑巳喜男的遗作。





General
Unique ID                      : 236936833540923448960960120685463997532 (0xB2405FCFCBF3CFCBA681486D98960C5C)
Complete name                  : I:\乱云 Midaregumo.1967.1080p.WEBRip.DD2.0.x264-SbR\Midaregumo.1967.1080p.WEB-DL.DD2.0.H.264-SbR.mkv
Format                         : Matroska
Format version                 : Version 4 / Version 2
File size                      : 10.8 GiB
Duration                       : 1 h 47 min
Overall bit rate mode          : Variable
Overall bit rate               : 14.3 Mb/s
Movie name                     : Midaregumo / Scattered Clouds / Разбросанные облака (1967) – RuTracker
Encoded date                   : UTC 2019-08-02 14:58:02
Writing application            : mkvmerge v8.5.1 ('Where you lead I will follow') 64bit
Writing library                : libebml v1.3.3 + libmatroska v1.4.4
Cover                          : Yes
Attachments                    : cover.jpg

Video
ID                             : 1
Format                         : AVC
Format/Info                    : Advanced Video Codec
Format profile                 : High@L4
Format settings                : CABAC / 4 Ref Frames
Format settings, CABAC         : Yes
Format settings, ReFrames      : 4 frames
Codec ID                       : V_MPEG4/ISO/AVC
Duration                       : 1 h 47 min
Bit rate mode                  : Variable
Bit rate                       : 14.1 Mb/s
Maximum bit rate               : 15.0 Mb/s
Width                          : 1 920 pixels
Height                         : 1 080 pixels
Display aspect ratio           : 16:9
Frame rate mode                : Constant
Frame rate                     : 23.976 (24000/1001) FPS
Color space                    : YUV
Chroma subsampling             : 4:2:0
Bit depth                      : 8 bits
Scan type                      : Progressive
Bits/(Pixel*Frame)             : 0.283
Stream size                    : 10.6 GiB (98%)
Title                          : Midaregumo.1967.1080p.WEB-DL.DD+2.0.H.264-SbR
Writing library                : x264 core 148 r2623 d5b2374
Encoding settings              : cabac=1 / ref=4 / deblock=1:-1:-1 / analyse=0x3:0x133 / me=umh / subme=9 / psy=1 / psy_rd=1.00:0.15 / mixed_ref=1 / me_range=24 / chroma_me=1 / trellis=2 / 8x8dct=1 / cqm=0 / deadzone=21,11 / fast_pskip=1 / chroma_qp_offset=-3 / threads=34 / lookahead_threads=5 / sliced_threads=0 / nr=150 / decimate=1 / interlaced=0 / bluray_compat=0 / constrained_intra=0 / bframes=8 / b_pyramid=2 / b_adapt=2 / b_bias=0 / direct=3 / weightb=1 / open_gop=0 / weightp=2 / keyint=120 / keyint_min=61 / scenecut=0 / intra_refresh=0 / rc_lookahead=120 / rc=crf / mbtree=1 / crf=18.0 / qcomp=0.60 / qpmin=0 / qpmax=69 / qpstep=4 / vbv_maxrate=15000 / vbv_bufsize=31250 / crf_max=0.0 / nal_hrd=vbr / filler=0 / ip_ratio=1.40 / aq=3:1.00
Language                       : Japanese
Default                        : Yes
Forced                         : No
Color range                    : Limited
Color primaries                : BT.709
Transfer characteristics       : BT.709
Matrix coefficients            : BT.709

Audio
ID                             : 2
Format                         : E-AC-3
Format/Info                    : Enhanced Audio Coding 3
Codec ID                       : A_EAC3
Duration                       : 1 h 47 min
Bit rate mode                  : Constant
Bit rate                       : 224 kb/s
Channel(s)                     : 2 channels
Channel positions              : Front: L R
Sampling rate                  : 48.0 kHz
Frame rate                     : 187.500 FPS (256 SPF)
Compression mode               : Lossy
Stream size                    : 173 MiB (2%)
Title                          : Original
Language                       : Japanese
Service kind                   : Complete Main
Default                        : No
Forced                         : No

Text #1
ID                             : 3
Format                         : ASS
Codec ID                       : S_TEXT/ASS
Codec ID/Info                  : Advanced Sub Station Alpha
Duration                       : 1 h 45 min
Bit rate                       : 151 b/s
Count of elements              : 1144
Compression mode               : Lossless
Stream size                    : 117 KiB (0%)
Language                       : Chinese
Default                        : Yes
Forced                         : No

Text #2
ID                             : 4
Format                         : UTF-8
Codec ID                       : S_TEXT/UTF8
Codec ID/Info                  : UTF-8 Plain Text
Duration                       : 1 h 45 min
Bit rate                       : 106 b/s
Count of elements              : 1144
Stream size                    : 82.1 KiB (0%)
Language                       : Chinese
Default                        : No
Forced                         : No

图片:Midaregumo.1967.1080p.WEB-DL.DD2.0.H.264-SbR.mkv.jpg



百度网盘:

链接:https://pan.baidu.com/s/1rTmhD1_3sXeWJxMuI7k8-w
提取码:vqqz
lingnanfengt
论坛版主
论坛版主
  • 注册日期2017-06-15
  • 发帖数1294
  • 影币1851枚
  • 魔力值1324点
  • 蓝光币923克拉
  • 社区居民
  • 忠实会员
  • 原创写手
沙发#
发布于:2019-08-04 07:55
噢耶!
游客
返回顶部