jimmy71960
圣骑士
圣骑士
  • 注册日期2015-08-19
  • 发帖数34
  • 影币96枚
  • 魔力值770点
  • 蓝光币0克拉
  • 社区居民
阅读:1550回复:3

[剧情]晚春 Late.Spring.1949.BluRay.1080p.x265.HEVC-Qman[UTR]

楼主#
更多 发布于:2019-08-01 12:31

图片:138439_front.jpg



◎译  名 晩春 / Banshun / Late Spring
◎片  名 晩春
◎年  代 1949
◎产  地 日本
◎类  别 剧情 / 家庭
◎语  言 日语
◎上映日期 1949-09-13(日本)
IMDb评分 8.3/10 from 12,250  users
IMDb链接 https://www.imdb.com/title/tt0041154/
◎豆瓣评分 8.7/10 from 12638 users
◎豆瓣链接 https://movie.douban.com/subject/1307265/
◎片  长 108分钟
◎导  演 小津安二郎 Yasujirô Ozu
◎编  剧  广津和郎 / 野田高梧 Kôgo Noda / 小津安二郎 Yasujirô Ozu
◎主  演 笠智众 Chishû Ryû
原节子 Setsuko Hara
月丘梦路 Yumeji Tsukioka
杉村春子 Haruko Sugimura
青木放屁 Hôhi Aoki
宇佐美淳 Jun Usami
三宅邦子 Kuniko Miyake
三岛雅夫 Masao Mishima
坪内美子 Yoshiko Tsubouchi
桂木洋子 Yôko Katsuragi
高桥丰子 Toyo Takahashi



◎标  签 日本 | 小津安二郎 | 原节子 | 日本电影 | 剧情 | 家庭

◎简  介

居住在镰仓的大学教授曾宫周吉(笠志众 饰)早年丧偶,他与女儿纪子(原节子 饰)相依为命。纪子从小担负起家庭的重担,悉心照顾父亲的生活起居。转眼间,纪子已二十七岁,依旧待字闺中。纪子的姑姑(杉村春子 饰)和朋友(月丘梦路 饰)都很关心她的婚事,然而她却因为对父亲的依恋,不愿谈婚论嫁。
不久姑姑为周吉介绍一名独身女子三轮秋子(三宅邦子 饰),周吉欣然同意。得知此事的纪子心中感到无限的怅然……
本片为当年日本《电影旬报》评选十佳电影第一名。



General
Unique ID                      : 214092005308363566948808446652147564864 (0xA1109ED1BAEE3A59B756257A202C0140)
Complete name                  : I:\晚春 Late.Spring.1949.BluRay.1080p.x265.HEVC-Qman[UTR]\Late.Spring.1949.BluRay.1080p.x265.HEVC-Qman[UTR].mkv
Format                         : Matroska
Format version                 : Version 4 / Version 2
File size                      : 2.37 GiB
Duration                       : 1 h 47 min
Overall bit rate               : 3 139 kb/s
Encoded date                   : UTC 2019-07-31 12:36:10
Writing application            : mkvmerge v8.5.1 ('Where you lead I will follow') 64bit
Writing library                : libebml v1.3.3 + libmatroska v1.4.4

Video
ID                             : 1
Format                         : HEVC
Format/Info                    : High Efficiency Video Coding
Format profile                 : Main 10@L4@Main
Codec ID                       : V_MPEGH/ISO/HEVC
Duration                       : 1 h 47 min
Bit rate                       : 3 070 kb/s
Width                          : 1 424 pixels
Height                         : 1 080 pixels
Display aspect ratio           : 4:3
Frame rate mode                : Constant
Frame rate                     : 23.976 (24000/1001) FPS
Color space                    : YUV
Chroma subsampling             : 4:2:0
Bit depth                      : 10 bits
Bits/(Pixel*Frame)             : 0.083
Stream size                    : 2.32 GiB (98%)
Writing library                : x265 1.7+351-8efce8620ae2:[Windows][GCC 4.8.2][64 bit] 10bit
Encoding settings              : wpp / ctu=64 / min-cu-size=8 / max-tu-size=32 / tu-intra-depth=1 / tu-inter-depth=1 / me=1 / subme=2 / merange=57 / no-rect / no-amp / max-merge=2 / temporal-mvp / no-early-skip / rdpenalty=0 / no-tskip / no-tskip-fast / strong-intra-smoothing / no-lossless / no-cu-lossless / no-constrained-intra / no-fast-intra / open-gop / no-temporal-layers / interlace=0 / keyint=250 / min-keyint=23 / scenecut=40 / rc-lookahead=20 / lookahead-slices=0 / bframes=4 / bframe-bias=0 / b-adapt=2 / ref=3 / limit-refs=0 / weightp / no-weightb / aq-mode=1 / aq-strength=1.00 / cbqpoffs=0 / crqpoffs=0 / rd=3 / psy-rd=0.30 / rdoq-level=0 / psy-rdoq=0.00 / signhide / deblock / sao / no-sao-non-deblock / b-pyramid / cutree / rc=crf / crf=22.0 / qcomp=0.60 / qpmin=0 / qpmax=51 / qpstep=4 / ipratio=1.40 / pbratio=1.30
Language                       : English
Default                        : Yes
Forced                         : No

Audio
ID                             : 2
Format                         : AAC
Format/Info                    : Advanced Audio Codec
Format profile                 : HE-AAC / LC
Format settings                : Explicit
Codec ID                       : A_AAC-2
Duration                       : 1 h 47 min
Bit rate                       : 66.2 kb/s
Channel(s)                     : 2 channels
Channel positions              : Front: L R
Sampling rate                  : 48.0 kHz / 24.0 kHz
Frame rate                     : 23.438 FPS (1024 SPF)
Compression mode               : Lossy
Delay relative to video        : 31 ms
Stream size                    : 51.7 MiB (2%)
Language                       : English
Default                        : Yes
Forced                         : No

Text #1
ID                             : 3
Format                         : ASS
Codec ID                       : S_TEXT/ASS
Codec ID/Info                  : Advanced Sub Station Alpha
Duration                       : 1 h 47 min
Bit rate                       : 126 b/s
Count of elements              : 999
Compression mode               : Lossless
Stream size                    : 100 KiB (0%)
Language                       : Chinese
Default                        : Yes
Forced                         : No

Text #2
ID                             : 4
Format                         : UTF-8
Codec ID                       : S_TEXT/UTF8
Codec ID/Info                  : UTF-8 Plain Text
Duration                       : 1 h 47 min
Bit rate                       : 88 b/s
Count of elements              : 999
Stream size                    : 70.1 KiB (0%)
Language                       : Chinese
Default                        : No
Forced                         : No

图片:Late.Spring.1949.BluRay.1080p.x265.HEVC-Qman[UTR].mkv_副本.jpg



百度网盘下载:


链接:https://pan.baidu.com/s/18nLkZm5_ioMRoFW6e_afLw
提取码:8olt

冷月梦寒
精灵王
精灵王
  • 注册日期2017-12-18
  • 发帖数1420
  • 影币3650枚
  • 魔力值1063点
  • 蓝光币158克拉
  • 社区居民
  • 最爱沙发
  • 忠实会员
沙发#
发布于:2019-08-01 20:33
谢谢楼主分享
q97n
精灵王
精灵王
  • 注册日期2016-12-19
  • 发帖数40
  • 影币50枚
  • 魔力值1436点
  • 蓝光币9克拉
  • 社区居民
  • 忠实会员
板凳#
发布于:2019-08-02 07:47
天道酬勤 厚德載物 支持一下
lingnanfengt
论坛版主
论坛版主
  • 注册日期2017-06-15
  • 发帖数1294
  • 影币1851枚
  • 魔力值1324点
  • 蓝光币923克拉
  • 社区居民
  • 忠实会员
  • 原创写手
地板#
发布于:2019-08-04 08:09
噢耶!
游客
返回顶部