克里克利
侠客
侠客
  • 注册日期2018-01-16
  • 发帖数20
  • 影币209枚
  • 魔力值186点
  • 蓝光币1克拉
  • 社区居民
阅读:766回复:5

[电影][哆啦A梦剧场版1991:大雄的天方夜谭][1080i/HDTV/TS/国粤客日六语/15.29GB]

楼主#
更多 发布于:2019-08-01 03:50
片源由a574045075提供,在此感谢!
台配国语音轨(小叮当版)、粤语音轨(叮当版)提取自VCD,台配国语音轨(哆啦A梦版)、粤语音轨(多啦A梦版)提取自DVD,台湾客家话音轨取自台湾客语频道源码,已做调制匹配高清重制版。
如需转载,请注明出处!‍‍

图片:ba956b8a9f29426b643227c9fe3995e0.jpg


◎译  名 哆啦A梦:大雄的阿拉伯之夜 / Doraemon: Nobita in Dorabian Nights / Doraemon: Nobita no Arabian naito / 大雄的一千零一夜 / 大雄的天方夜谭
◎片  名 ドラえもん のび太のドラビアンナイト
◎年  代 1991
◎产  地 日本
◎类  别 科幻 / 动画 / 冒险
◎语  言 日语
◎上映日期 1991-03-09(日本)
◎IMDb评分  7.0/10 from 217 users
◎IMDb链接  http://www.imdb.com/title/tt1147508
◎豆瓣评分 8.5/10 from 3288 users
◎豆瓣链接  https://movie.douban.com/subject/1458899/
◎片  长 100分钟
◎导  演 芝山努 Tsutomu Shibayama
◎编  剧 藤子・F・不二雄 F. Fujio Fujiko
◎主  演 大山信代 Nobuyo Ohyama
                  小原乃梨子 Noriko Ohara
                  野村道子 Michiko Nomura
                  立壁和也 Kazuya Tatekabe
                肝付兼太 Kaneta Kimotsuki


◎简  介  

       哆啦A梦(大山信代 配音)拿出了一个可以进入连环画的鞋子,大家跳进连环画玩,可是静香(野村道子 配音)丢了一只鞋子,没有回来。而连环画被大雄的妈妈烧毁了。于是,大家必须去古代的阿拉伯,寻找童话与现实有衔接的地方,找寻静香的下落。静香是被奴隶贩子拐走了,而大家先是遭遇四十大盗,哆啦A梦的口袋也被偷了,然后大家在海上遭遇暴风雨,拣回一条命被冲到了大沙漠,只能在一望无际的沙漠里艰辛的寻找静香的下落。沙漠里,大家经受着常人无法忍受的困难,大雄严重中暑昏迷,小夫屡屡看到幻像。他们后来发现了一个黄金宫,国王是《一千零一夜》里的风云人物水手辛伯达,他有着大魔神,神灯,飞毯等许多不可思议的,只会出现在《一千零一夜》童话故事里的道具。他为什么会有这些东西?面对想抢夺黄金宫的奴隶贩子和四十大盗,大雄一行人将如何化险为夷……

图片:7d8e93221e26436120c1c9e02f011911.jpg


图片:33d11388b2a8de5bbb5e623e80f5c1ec.jpg


图片:d75b1171362c5039964fd8551825c241.jpg


General
ID                          : 1 (0x1)
Complete name               : J:\Doraemon Nobita‘s Dorabian Nights 1991 HDTV 1080i MPEG-2 6Audio-doraemon.ts
Format                      : MPEG-TS
File size                   : 15.3 GiB
Duration                    : 1 h 39 min
Overall bit rate mode       : Variable
Overall bit rate            : 21.9 Mb/s
Maximum Overall bit rate    : 35.5 Mb/s

Video
ID                          : 4113 (0x1011)
Menu ID                     : 1 (0x1)
Format                      : MPEG Video
Format version              : Version 2
Format profile              : Main@High
Format settings             : CustomMatrix / BVOP
Format settings, BVOP       : Yes
Format settings, Matrix     : Custom
Format settings, GOP        : Variable
Format settings, picture st : Frame
Codec ID                    : 2
Duration                    : 1 h 39 min
Bit rate mode               : Variable
Width                       : 1 920 pixels
Height                      : 1 080 pixels
Display aspect ratio        : 16:9
Frame rate                  : 29.970 (30000/1001) FPS
Color space                 : YUV
Chroma subsampling          : 4:2:0
Bit depth                   : 8 bits
Scan type                   : Interlaced
Scan order                  : Top Field First
Compression mode            : Lossy
Time code of first frame    : 00:00:00:00
Time code source            : Group of pictures header
GOP, Open/Closed            : Open
Color primaries             : BT.709
Transfer characteristics    : BT.709
Matrix coefficients         : BT.709

Audio #1
ID                          : 4352 (0x1100)
Menu ID                     : 1 (0x1)
Format                      : AAC LC
Format/Info                 : Advanced Audio Codec Low Complexity
Format version              : Version 2
Muxing mode                 : ADTS
Codec ID                    : 15-2
Duration                    : 1 h 39 min
Bit rate mode               : Variable
Channel(s)                  : 2 channels
Channel layout              : L R
Sampling rate               : 48.0 kHz
Frame rate                  : 46.875 FPS (1024 SPF)
Compression mode            : Lossy
Language                    : Japanese

Audio #2
ID                          : 4353 (0x1101)
Menu ID                     : 1 (0x1)
Format                      : AC-3
Format/Info                 : Audio Coding 3
Commercial name             : Dolby Digital
Codec ID                    : 129
Duration                    : 1 h 39 min
Bit rate mode               : Constant
Bit rate                    : 384 kb/s
Channel(s)                  : 2 channels
Channel layout              : L R
Sampling rate               : 48.0 kHz
Frame rate                  : 31.250 FPS (1536 SPF)
Bit depth                   : 16 bits
Compression mode            : Lossy
Stream size                 : 274 MiB (2%)
Language                    : Chinese (台配国语哆啦A梦版)
Service kind                : Complete Main

Audio #3
ID                          : 4354 (0x1102)
Menu ID                     : 1 (0x1)
Format                      : AC-3
Format/Info                 : Audio Coding 3
Commercial name             : Dolby Digital
Codec ID                    : 129
Duration                    : 1 h 39 min
Bit rate mode               : Constant
Bit rate                    : 224 kb/s
Channel(s)                  : 2 channels
Channel layout              : L R
Sampling rate               : 48.0 kHz
Frame rate                  : 31.250 FPS (1536 SPF)
Bit depth                   : 16 bits
Compression mode            : Lossy
Stream size                 : 160 MiB (1%)
Language                    : Chinese (台配国语小叮当版)
Service kind                : Complete Main

Audio #4
ID                          : 4355 (0x1103)
Menu ID                     : 1 (0x1)
Format                      : AC-3
Format/Info                 : Audio Coding 3
Commercial name             : Dolby Digital
Codec ID                    : 129
Duration                    : 1 h 39 min
Bit rate mode               : Constant
Bit rate                    : 192 kb/s
Channel(s)                  : 2 channels
Channel layout              : L R
Sampling rate               : 48.0 kHz
Frame rate                  : 31.250 FPS (1536 SPF)
Bit depth                   : 16 bits
Compression mode            : Lossy
Stream size                 : 137 MiB (1%)
Language                    : Chinese (粤配多啦A梦版)
Service kind                : Complete Main

Audio #5
ID                          : 4356 (0x1104)
Menu ID                     : 1 (0x1)
Format                      : AC-3
Format/Info                 : Audio Coding 3
Commercial name             : Dolby Digital
Codec ID                    : 129
Duration                    : 1 h 39 min
Bit rate mode               : Constant
Bit rate                    : 224 kb/s
Channel(s)                  : 2 channels
Channel layout              : L R
Sampling rate               : 48.0 kHz
Frame rate                  : 31.250 FPS (1536 SPF)
Bit depth                   : 16 bits
Compression mode            : Lossy
Stream size                 : 160 MiB (1%)
Language                    : Chinese (粤配叮当版)
Service kind                : Complete Main

Audio #6
ID                          : 4357 (0x1105)
Menu ID                     : 1 (0x1)
Format                      : AC-3
Format/Info                 : Audio Coding 3
Commercial name             : Dolby Digital
Codec ID                    : 129
Duration                    : 1 h 39 min
Bit rate mode               : Constant
Bit rate                    : 192 kb/s
Channel(s)                  : 2 channels
Channel layout              : L R
Sampling rate               : 48.0 kHz
Frame rate                  : 31.250 FPS (1536 SPF)
Bit depth                   : 16 bits
Compression mode            : Lossy
Stream size                 : 137 MiB (1%)
Language                    : Chinese (台湾客家话)
Service kind                : Complete Main
Doraemon Nobita's Dorabian Nights 1991 HDTV 1080i MPEG-2 6Audio-doraemon.ts.torrent

最新喜欢:

gongzai906gongza...
loveswanghun
精灵王
精灵王
  • 注册日期2015-07-29
  • 发帖数351
  • 影币447枚
  • 魔力值1069点
  • 蓝光币3克拉
  • 社区居民
  • 忠实会员
沙发#
发布于:2019-08-01 10:59
收藏了谢谢
twatlo
精灵王
精灵王
  • 注册日期2015-07-29
  • 发帖数187
  • 影币103枚
  • 魔力值1412点
  • 蓝光币13克拉
  • 社区居民
  • 忠实会员
板凳#
发布于:2019-08-01 11:17
喜欢的动画,谢谢分享
zjzj345
精灵王
精灵王
  • 注册日期2015-09-27
  • 发帖数42
  • 影币1254枚
  • 魔力值1437点
  • 蓝光币0克拉
  • 社区居民
  • 忠实会员
地板#
发布于:2019-08-01 19:38
感谢分享
冷月梦寒
精灵王
精灵王
  • 注册日期2017-12-18
  • 发帖数1420
  • 影币3650枚
  • 魔力值1063点
  • 蓝光币158克拉
  • 社区居民
  • 最爱沙发
  • 忠实会员
4楼#
发布于:2019-08-01 20:39
谢谢楼主分享
ANT
ANT
精灵王
精灵王
  • 注册日期2015-07-29
  • 发帖数204
  • 影币996枚
  • 魔力值837点
  • 蓝光币17克拉
  • 社区居民
5楼#
发布于:2019-08-05 12:08
感谢分享
游客
返回顶部