福利发放鸡
论坛版主
论坛版主
  • 注册日期2017-03-24
  • 发帖数525
  • 影币7527枚
  • 魔力值1560点
  • 蓝光币2克拉
  • 社区居民
  • 忠实会员
  • 喜欢达人
  • 原创写手
阅读:3881回复:14

[4K电影]素人特工 The.Rookies.2019.4K.2160p.YK.WEB-DL.x265.AAC-FLTTH.mp4 4.79G

楼主#
更多 发布于:2019-07-31 12:50

图片:SS_00001.jpg

图片:SS_00002.jpg

图片:SS_00003.jpg

图片:SS_00004.jpg

图片:SS_00005.jpg

图片:SS_00006.jpg



General
Complete name                            : The.Rookies.2019.4K.2160p.YK.WEB-DL.x265.AAC-FLTTH.mp4
Format                                   : MPEG-4
Format profile                           : Base Media
Codec ID                                 : isom (isom/iso2/mp41)
File size                                : 4.79 GiB
Duration                                 : 1 h 52 min
Overall bit rate mode                    : Variable
Overall bit rate                         : 6 076 kb/s
Writing application                      : Lavf58.28.101
  
Video
ID                                       : 1
Format                                   : HEVC
Format/Info                              : High Efficiency Video Coding
Format profile                           : Main@L5@Main
Codec ID                                 : hev1
Codec ID/Info                            : High Efficiency Video Coding
Duration                                 : 1 h 52 min
Bit rate                                 : 5 878 kb/s
Width                                    : 3 840 pixels
Height                                   : 1 616 pixels
Display aspect ratio                     : 2.40:1
Frame rate mode                          : Constant
Frame rate                               : 25.000 FPS
Color space                              : YUV
Chroma subsampling                       : 4:2:0
Bit depth                                : 8 bits
Bits/(Pixel*Frame)                       : 0.038
Stream size                              : 4.64 GiB (97%)
Codec configuration box                  : hvcC
  
Audio
ID                                       : 2
Format                                   : AAC LC
Format/Info                              : Advanced Audio Codec Low Complexity
Codec ID                                 : mp4a-40-2
Duration                                 : 1 h 52 min
Bit rate mode                            : Variable
Bit rate                                 : 192 kb/s
Maximum bit rate                         : 194 kb/s
Channel(s)                               : 2 channels
Channel layout                           : L R
Sampling rate                            : 44.1 kHz
Frame rate                               : 43.066 FPS (1024 SPF)
Compression mode                         : Lossy
Stream size                              : 153 MiB (3%)
Default                                  : Yes
Alternate group                          : 1



电影简介:
    《素人特工》是由袁锦麟自编自导,许魏洲、王大陆、米拉·乔沃维奇、张榕容、肖战等主演的动作片。
    该片讲述了赵风误打误撞闯入了一场国际犯罪交易,稀里糊涂的来到了欧洲,结果他遇上了前来出差的国际刑警淼淼,淼淼误认为赵风是犯罪分子,对其展开调查,两人发生了一系列啼笑皆非的故事。该片于2019年7月12日在中国内地上映。

剧情简介:
    极限运动达人赵风(王大陆饰),误打误撞闯入了一场国际犯罪交易,不得不跟随国际特工(米拉·乔沃维奇饰)一起前往布达佩斯。在这里他与废柴刑警淼淼(张榕容饰)、民间科学家丁山(许魏洲饰)与待业医生LV(刘美彤饰)组成了一支素人特工小组。这四个特工小白和高级国际特工米拉一起,与恐怖分子开启了一场又惊又喜的斗争。


下载地址:
https://pan.baidu.com/s/14TmrvgfeAPM4vL-LwBDdhg 提取码:ww46
zhaobentao
骑士
骑士
  • 注册日期2018-04-23
  • 发帖数125
  • 影币111枚
  • 魔力值435点
  • 蓝光币18克拉
  • 社区居民
  • 忠实会员
沙发#
发布于:2019-07-31 13:04
有btl链接么
wq7712
精灵王
精灵王
  • 注册日期2017-11-08
  • 发帖数232
  • 影币317枚
  • 魔力值1130点
  • 蓝光币98克拉
  • 社区居民
板凳#
发布于:2019-07-31 15:09
豆瓣3.8
福利发放鸡
论坛版主
论坛版主
  • 注册日期2017-03-24
  • 发帖数525
  • 影币7527枚
  • 魔力值1560点
  • 蓝光币2克拉
  • 社区居民
  • 忠实会员
  • 喜欢达人
  • 原创写手
地板#
发布于:2019-07-31 15:55
zhaobentao:有btl链接么回到原帖
你给钱就有。
hotgodog
侠客
侠客
  • 注册日期2017-07-24
  • 发帖数266
  • 影币0枚
  • 魔力值0点
  • 蓝光币0克拉
  • 社区居民
  • 忠实会员
4楼#
发布于:2019-07-31 18:54
感謝樓主分享優質資源
冷月梦寒
精灵王
精灵王
  • 注册日期2017-12-18
  • 发帖数1420
  • 影币3650枚
  • 魔力值1063点
  • 蓝光币158克拉
  • 社区居民
  • 最爱沙发
  • 忠实会员
5楼#
发布于:2019-07-31 19:29
谢谢楼主分享
ynhqlyhy
侠客
侠客
  • 注册日期2019-02-20
  • 发帖数135
  • 影币130枚
  • 魔力值162点
  • 蓝光币64克拉
6楼#
发布于:2019-08-01 08:40
看看 谢谢
飘域家园
侠客
侠客
  • 注册日期2016-12-06
  • 发帖数76
  • 影币105枚
  • 魔力值92点
  • 蓝光币2克拉
7楼#
发布于:2019-08-01 11:09
谢谢楼主分享
zyyzwyf
精灵王
精灵王
  • 注册日期2017-05-17
  • 发帖数1612
  • 影币2483枚
  • 魔力值807点
  • 蓝光币800克拉
  • 社区居民
  • 忠实会员
8楼#
发布于:2019-08-02 03:24
感谢楼主分享
Capwin
侠客
侠客
  • 注册日期2017-05-25
  • 发帖数91
  • 影币49枚
  • 魔力值96点
  • 蓝光币30克拉
  • 社区居民
9楼#
发布于:2019-08-03 19:48
感谢分享!!
tthh9988
新手
新手
  • 注册日期2016-10-06
  • 发帖数8
  • 影币14枚
  • 魔力值50点
  • 蓝光币0克拉
10楼#
发布于:2019-08-19 20:26
这部戏太精彩了
wsxht
骑士
骑士
  • 注册日期2019-04-09
  • 发帖数363
  • 影币361枚
  • 魔力值218点
  • 蓝光币54克拉
11楼#
发布于:2019-08-20 19:13
真诚的感谢楼主的辛苦分享
syzhs
终生无尚荣耀蓝光粉
终生无尚荣耀蓝光粉
  • 注册日期2015-07-29
  • 发帖数59
  • 影币1534枚
  • 魔力值1284点
  • 蓝光币192克拉
  • 社区居民
  • 忠实会员
12楼#
发布于:2019-08-22 23:17
给多少钱就有啊
lhp61549
侠客
侠客
  • 注册日期2019-04-09
  • 发帖数15
  • 影币26枚
  • 魔力值244点
  • 蓝光币4克拉
  • 社区居民
  • 忠实会员
13楼#
发布于:2019-08-29 14:50
多谢楼主分享!!!
daemontooth
圣骑士
圣骑士
  • 注册日期2016-10-18
  • 发帖数223
  • 影币36枚
  • 魔力值757点
  • 蓝光币1克拉
  • 社区居民
  • 忠实会员
14楼#
发布于:2019-09-13 19:12
感谢分享。
游客
返回顶部