福利发放鸡
论坛版主
论坛版主
  • 注册日期2017-03-24
  • 发帖数757
  • 影币10294枚
  • 魔力值1974点
  • 蓝光币2克拉
  • 社区居民
  • 忠实会员
  • 喜欢达人
  • 原创写手
阅读:1656回复:6

[其他]中央电视台《开讲啦》严纯华—分享他心中的"好大学" Voice.20190629.2160p.CCTV-4K.UHDTV.HEVC.10bit.HDR.DD5.1-FLTTH.ts 11.1G

楼主#
更多 发布于:2019-07-15 19:24

图片:SS_00004.jpg

图片:SS_00006.jpg

图片:SS_00007.jpg

图片:SS_00008.jpg

图片:SS_00009.jpg

图片:SS_00010.jpg



General
ID                                       : 36 (0x24)
Complete name                            : Voice.20190629.2160p.CCTV-4K.UHDTV.HEVC.10bit.HDR.DD5.1-FLTTH.ts
Format                                   : MPEG-TS
File size                                : 11.1 GiB
Duration                                 : 45 min 9 s
Overall bit rate mode                    : Variable
Overall bit rate                         : 35.3 Mb/s
  
Video
ID                                       : 7010 (0x1B62)
Menu ID                                  : 701 (0x2BD)
Format                                   : HEVC
Format/Info                              : High Efficiency Video Coding
Format profile                           : Main 10@L5@High
Codec ID                                 : 36
Duration                                 : 45 min 10 s
Bit rate                                 : 33.1 Mb/s
Width                                    : 3 840 pixels
Height                                   : 2 160 pixels
Display aspect ratio                     : 16:9
Frame rate                               : 50.000 FPS
Standard                                 : Component
Color space                              : YUV
Chroma subsampling                       : 4:2:0 (Type 0)
Bit depth                                : 10 bits
Bits/(Pixel*Frame)                       : 0.080
Stream size                              : 10.4 GiB (94%)
Color range                              : Limited
Color primaries                          : BT.2020
Transfer characteristics                 : HLG
Matrix coefficients                      : BT.2020 non-constant
  
Audio
ID                                       : 7011 (0x1B63)
Menu ID                                  : 701 (0x2BD)
Format                                   : AC-3
Format/Info                              : Audio Coding 3
Commercial name                          : Dolby Digital
Codec ID                                 : 129
Duration                                 : 45 min 10 s
Bit rate mode                            : Constant
Bit rate                                 : 448 kb/s
Channel(s)                               : 6 channels
Channel layout                           : L R C LFE Ls Rs
Sampling rate                            : 48.0 kHz
Frame rate                               : 31.250 FPS (1536 SPF)
Bit depth                                : 16 bits
Compression mode                         : Lossy
Delay relative to video                  : -332 ms
Stream size                              : 145 MiB (1%)
Service kind                             : Complete Main
  
Menu
ID                                       : 7015 (0x1B67)
Menu ID                                  : 701 (0x2BD)
Duration                                 : 45 min 9 s
List                                     : 7010 (0x1B62) (HEVC) / 7011 (0x1B63) (AC-3)
Service name                             : CCTV-4K
Service provider                         : BGCTV
Service type                             : user defined



节目简介:
    由中央电视台综合频道(CCTV-1)和唯众传媒联合制作的《开讲啦》是中国首档青年电视公开课。每期节目由一位名人倾情演讲,分享他们对于生活和生命的感悟,给予中国青年现实的讨论和心灵的滋养。讨论青年们的人生问题,同时也在讨论青春中国的社会问题。 节目每期有八至十位来自全国各大高校的青年代表,向演讲嘉宾提问互动,300位大学生作为观众现场分享这场有思考、有疑问、有价值观、有锋芒的思想碰撞。他们对人生有思考,对未来有疑问,他们思想新锐,观点先锋,是中国未来的中坚力量。每期演讲嘉宾选择的主题,均为当下年轻人心中的问号,讲述青年最关心、最困惑的话题。
    本期邀请到兰州大学校长严纯华,分享他心中的“好大学”。怎样的大学是好大学?严纯华在演讲中分享了自己的思考。他认为,不能以毕业生工资的高低或是否成名,是否当官作为标志。好大学应该有独特的气质和文化。当他第一次到兰大,就感受到了学生内心的清澈,老师的扎实和厚重。


下载地址(20190629期):
https://pan.baidu.com/s/1U12sHTio0JtcUztBnn11bg 提取码:gmr3

最新喜欢:

老顽童老顽童 swwsww zyyzwyfzyyzwy...
冷月梦寒
精灵王
精灵王
  • 注册日期2017-12-18
  • 发帖数1443
  • 影币5335枚
  • 魔力值1842点
  • 蓝光币171克拉
  • 社区居民
  • 最爱沙发
  • 忠实会员
沙发#
发布于:2019-07-15 20:27
谢谢楼主分享
88girl
骑士
骑士
  • 注册日期2017-07-26
  • 发帖数78
  • 影币3枚
  • 魔力值408点
  • 蓝光币0克拉
板凳#
发布于:2019-07-15 21:34
感谢分享,我得下一会了
zyyzwyf
精灵王
精灵王
  • 注册日期2017-05-17
  • 发帖数1702
  • 影币2653枚
  • 魔力值922点
  • 蓝光币803克拉
  • 社区居民
  • 忠实会员
地板#
发布于:2019-07-16 01:10
感谢楼主分享
老顽童
圣骑士
圣骑士
  • 注册日期2019-05-15
  • 发帖数124
  • 影币492枚
  • 魔力值496点
  • 蓝光币60克拉
  • 社区居民
4楼#
发布于:2019-07-17 14:07
下来看看。
飘域家园
侠客
侠客
  • 注册日期2016-12-06
  • 发帖数76
  • 影币105枚
  • 魔力值92点
  • 蓝光币2克拉
5楼#
发布于:2019-07-18 08:39
下来看看。
norwolf
侠客
侠客
  • 注册日期2017-09-13
  • 发帖数34
  • 影币32枚
  • 魔力值112点
  • 蓝光币9克拉
6楼#
发布于:2019-08-04 09:13
预览了一下,很有意思。
游客
返回顶部