richartleo
精灵王
精灵王
  • 注册日期2016-11-27
  • 发帖数389
  • 影币1910枚
  • 魔力值1642点
  • 蓝光币14克拉
  • 社区居民
  • 忠实会员
  • 原创写手
阅读:1271回复:7

[剧情]遮蔽的天空/庇护天空 The.Sheltering.Sky.1990.1080p.BluRay.X264-AMIABLE 14.21GB

楼主#
更多 发布于:2019-07-05 14:23


◎译  名 遮蔽的天空 / 庇护天空 / 情陷撒哈拉 / 沙漠之茶
◎片  名 The Sheltering Sky
◎年  代 1990
◎产  地 英国 / 意大利
◎类  别 剧情 / 冒险
◎语  言 阿拉伯语 / 英语 / 法语
◎上映日期 1990-10-25
◎IMDb评分 6.8/10 from 10435 users
◎IMDb链接 http://www.imdb.com/title/tt0100594
◎豆瓣评分 7.8/10 from 3523 users
◎豆瓣链接 https://movie.douban.com/subject/1293034/
◎片  长 138 分钟
◎导  演 贝纳尔多·贝托鲁奇 Bernardo Bertolucci
◎编  剧 马克·派普罗 Mark Peploe / 贝纳尔多·贝托鲁奇 Bernardo Bertolucci / Paul Bowles
◎主  演 Debra Winger
John Malkovich
Campbell Scott
Jill Bennett
Timothy Spall


◎标  签 意大利 | 贝托鲁奇 | 贝纳多·贝托鲁奇 | 意大利电影 | 爱情 | 非洲 | BernardoBertolucci | 英国

◎简  介

作曲家波特(约翰·马尔科维奇 John Malkovich 饰)和作家妻子姬特(德博拉·温格 Debra Winger 饰)在二战后携两人的朋友雷纳(坎贝尔·斯科特 Campbell Scott 饰)一起来到北非撒哈拉旅行。在神秘而捉摸不定的沙漠中,波特和姬特的婚姻危机似乎也因此得到了异样 的缓和——波特流连于和当地的妓女寻欢,而姬特却和雷纳发生了关系。在夫妻关系的断裂中,波特和姬特重新意识到对方对自己的重要性。然而此时波特不幸染上霍乱,姬特带着他辗转奔袭在撒哈拉,严酷的沙漠吞噬了希望,最终波特还是离姬特而去。姬特在悲痛中阴差阳错跟随一支驼队继续在沙漠中踯躅,并成为驼队的女人,在无尽的沙漠中渐行渐远……

Video
ID : 1
Format : AVC
Format/Info : Advanced Video Codec
Format profile : High@L4.1
Format settings, CABAC : Yes
Format settings, ReFrames : 4 frames
Codec ID : V_MPEG4/ISO/AVC
Duration : 2 h 17 min
Bit rate : 13.3 Mb/s
Width : 1 920 pixels
Height : 1 080 pixels
Display aspect ratio : 16:9
Frame rate mode : Constant
Frame rate : 23.976 (24000/1001) FPS
Color space : YUV
Chroma subsampling : 4:2:0
Bit depth : 8 bits
Scan type : Progressive
Bits/(Pixel*Frame) : 0.267
Stream size : 12.5 GiB (88%)
Writing library : x264 core 148 r2692 64f4e24
Encoding settings : cabac=1 / ref=4 / deblock=1:-3:-3 / analyse=0x3:0x113 / me=umh / subme=8 / psy=1 / psy_rd=1.10:0.00 / mixed_ref=1 / me_range=32 / chroma_me=1 / trellis=1 / 8x8dct=1 / cqm=0 / deadzone=21,11 / fast_pskip=1 / chroma_qp_offset=-2 / threads=24 / lookahead_threads=4 / sliced_threads=0 / nr=0 / decimate=1 / interlaced=0 / bluray_compat=0 / constrained_intra=0 / bframes=3 / b_pyramid=2 / b_adapt=2 / b_bias=0 / direct=3 / weightb=1 / open_gop=0 / weightp=2 / keyint=240 / keyint_min=24 / scenecut=40 / intra_refresh=0 / rc_lookahead=50 / rc=2pass / mbtree=1 / bitrate=13250 / ratetol=1.0 / qcomp=0.60 / qpmin=0 / qpmax=69 / qpstep=4 / cplxblur=20.0 / qblur=0.5 / ip_ratio=1.40 / aq=3:0.80
Default : Yes
Forced : No
Statistics Tags Issue : no_variable_data 1970-01-01 00:00:00 / no_variable_data 2010-02-22 21:41:29
FromStats_BitRate : 13242263
FromStats_Duration : 02:17:52.139000000
FromStats_FrameCount : 198333
FromStats_StreamSize : 13692730201

Audio
ID : 2
Format : DTS
Format/Info : Digital Theater Systems
Mode : 16
Format settings, Endianness : Big
Codec ID : A_DTS
Duration : 2 h 17 min
Bit rate mode : Constant
Bit rate : 1 509 kb/s
Channel(s) : 6 channels
Channel positions : Front: L C R, Side: L R, LFE
Sampling rate : 48.0 kHz
Frame rate : 93.750 FPS (512 spf)
Bit depth : 24 bits
Compression mode : Lossy
Stream size : 1.45 GiB (10%)
Language : English
Default : Yes
Forced : No
Statistics Tags Issue : no_variable_data 1970-01-01 00:00:00 / no_variable_data 2010-02-22 21:41:29
FromStats_BitRate : 1508999
FromStats_Duration : 02:17:51.691000000
FromStats_FrameCount : 775471
FromStats_StreamSize : 1560247652

Text #1
ID : 3
Format : UTF-8
Codec ID : S_TEXT/UTF8
Codec ID/Info : UTF-8 Plain Text
Title : Forced
Language : English
Default : Yes
Forced : Yes
Statistics Tags Issue : no_variable_data 1970-01-01 00:00:00 / no_variable_data 2010-02-22 21:41:29
FromStats_BitRate : 1
FromStats_Duration : 02:00:06.283000000
FromStats_FrameCount : 56
FromStats_StreamSize : 1445

Text #2
ID : 4
Format : UTF-8
Codec ID : S_TEXT/UTF8
Codec ID/Info : UTF-8 Plain Text
Language : English
Default : No
Forced : No
Statistics Tags Issue : no_variable_data 1970-01-01 00:00:00 / no_variable_data 2010-02-22 21:41:29
FromStats_BitRate : 29
FromStats_Duration : 02:11:16.283000000
FromStats_FrameCount : 1201
FromStats_StreamSize : 28766

Text #3
ID : 5
Format : UTF-8
Codec ID : S_TEXT/UTF8
Codec ID/Info : UTF-8 Plain Text
Title : SDH
Language : English
Default : No
Forced : No
Statistics Tags Issue : no_variable_data 1970-01-01 00:00:00 / no_variable_data 2010-02-22 21:41:29
FromStats_BitRate : 30
FromStats_Duration : 02:12:48.609000000
FromStats_FrameCount : 1318
FromStats_StreamSize : 30578

Menu
00:00:00.000 : en:00:00:00.000
00:11:20.430 : en:00:11:20.430
00:24:30.260 : en:00:24:30.260
00:31:59.334 : en:00:31:59.334
00:40:31.679 : en:00:40:31.679
00:53:21.115 : en:00:53:21.115
01:06:08.214 : en:01:06:08.214
01:18:37.671 : en:01:18:37.671
01:30:52.572 : en:01:30:52.572
01:41:35.965 : en:01:41:35.965
01:54:10.385 : en:01:54:10.385
02:03:51.758 : en:02:03:51.758




The.Sheltering.Sky.1990.1080p.BluRay.X264-AMIABLE.torrent






--------------------------------------------电子书资源推荐---------------------------------------------




英语学习类电子书 | 摄影艺术中外图书 | FONT 字库精选 | 国学丛书大全 | 经典名著英汉对照 | ART:绘画 素描书籍 | 三国演义-英文版【The Three Kingdoms】| 甲骨文丛书系列合集 | 大家小书 | 双语译林  |  丛书&套书 | 18+读物 | 英语读物 | 名著经典 | 丛书&套书 | 学习-教育-教程-励志 | 历史 History | 心理学 哲学 政治学 | 小说精选 | 儿童文学 | 经营管理 |  世界著名报刊杂志  | 理想国译丛 |  牛津通识读本 | 译文名著精选

最新喜欢:

zyyzwyfzyyzwy... sd行云流水sd行云流水
sd行云流水
圣骑士
圣骑士
  • 注册日期2018-03-19
  • 发帖数549
  • 影币437枚
  • 魔力值230点
  • 蓝光币188克拉
沙发#
发布于:2019-07-05 18:43
感谢楼主分享!
冷月梦寒
精灵王
精灵王
  • 注册日期2017-12-18
  • 发帖数1391
  • 影币3555枚
  • 魔力值1025点
  • 蓝光币158克拉
  • 社区居民
  • 最爱沙发
  • 忠实会员
板凳#
发布于:2019-07-05 19:57
谢谢楼主分享
xxf1207
侠客
侠客
  • 注册日期2016-03-09
  • 发帖数53
  • 影币81枚
  • 魔力值70点
  • 蓝光币15克拉
  • 社区居民
  • 忠实会员
地板#
发布于:2019-07-06 10:43
谢谢你,分享快乐。
charles0424
精灵王
精灵王
  • 注册日期2016-02-17
  • 发帖数661
  • 影币403枚
  • 魔力值714点
  • 蓝光币35克拉
  • 社区居民
  • 忠实会员
4楼#
发布于:2019-07-06 10:52
感谢分享
styx
精灵王
精灵王
  • 注册日期2017-02-15
  • 发帖数246
  • 影币189枚
  • 魔力值870点
  • 蓝光币32克拉
5楼#
发布于:2019-07-06 18:39
感谢楼主分享!
zyyzwyf
精灵王
精灵王
  • 注册日期2017-05-17
  • 发帖数1565
  • 影币2397枚
  • 魔力值752点
  • 蓝光币787克拉
  • 社区居民
  • 忠实会员
6楼#
发布于:2019-07-07 03:54
感谢分享,感谢楼主!感谢论坛!
zuozuo
精灵王
精灵王
  • 注册日期2015-09-21
  • 发帖数892
  • 影币795枚
  • 魔力值1817点
  • 蓝光币231克拉
  • 社区居民
  • 忠实会员
7楼#
发布于:2019-07-07 18:58
111
游客
返回顶部