福利发放鸡
论坛版主
论坛版主
  • 注册日期2017-03-24
  • 发帖数514
  • 影币7335枚
  • 魔力值1518点
  • 蓝光币2克拉
  • 社区居民
  • 忠实会员
  • 喜欢达人
  • 原创写手
阅读:687回复:5

[其他]庆祝中国共产党成立98周年 中央广播电视总台央视综艺频道特别节目 颂歌献给党.20190701.1080i.CCTV3.HDTV.H.264.DD5.1-FLTTH.ts 5.33G

楼主#
更多 发布于:2019-07-03 19:28

图片:SS_00007.jpg

图片:SS_00008.jpg

图片:SS_00009.jpg

图片:SS_00010.jpg

图片:SS_00011.jpg

图片:SS_00012.jpg



General
ID                                       : 1 (0x1)
Complete name                            : 颂歌献给党.20190701.1080i.CCTV3.HDTV.H.264.DD5.1-FLTTH.ts
Format                                   : MPEG-TS
File size                                : 5.33 GiB
Duration                                 : 1 h 25 min
Overall bit rate mode                    : Variable
Overall bit rate                         : 8 953 kb/s
   
Video
ID                                       : 256 (0x100)
Menu ID                                  : 1 (0x1)
Format                                   : AVC
Format/Info                              : Advanced Video Codec
Format profile                           : High@L4
Format settings                          : CABAC / 3 Ref Frames
Format settings, CABAC                   : Yes
Format settings, RefFrames               : 3 frames
Format settings, GOP                     : M=3, N=15
Codec ID                                 : 27
Duration                                 : 1 h 25 min
Bit rate mode                            : Constant
Bit rate                                 : 7 800 kb/s
Width                                    : 1 920 pixels
Height                                   : 1 080 pixels
Display aspect ratio                     : 16:9
Frame rate                               : 25.000 FPS
Color space                              : YUV
Chroma subsampling                       : 4:2:0
Bit depth                                : 8 bits
Scan type                                : Interlaced
Scan type, store method                  : Separated fields
Scan order                               : Top Field First
Bits/(Pixel*Frame)                       : 0.150
Stream size                              : 4.79 GiB (90%)
Color range                              : Limited
Color primaries                          : BT.709
Transfer characteristics                 : BT.709
Matrix coefficients                      : BT.709
   
Audio
ID                                       : 257 (0x101)
Menu ID                                  : 1 (0x1)
Format                                   : AC-3
Format/Info                              : Audio Coding 3
Commercial name                          : Dolby Digital
Codec ID                                 : 129
Duration                                 : 1 h 25 min
Bit rate mode                            : Constant
Bit rate                                 : 448 kb/s
Channel(s)                               : 6 channels
Channel layout                           : L R C LFE Ls Rs
Sampling rate                            : 48.0 kHz
Frame rate                               : 31.250 FPS (1536 SPF)
Bit depth                                : 16 bits
Compression mode                         : Lossy
Delay relative to video                  : -613 ms
Stream size                              : 273 MiB (5%)
Language                                 : English
Service kind                             : Complete Main
   
Menu
ID                                       : 4096 (0x1000)
Menu ID                                  : 1 (0x1)
Duration                                 : 1 h 25 min
List                                     : 256 (0x100) (AVC) / 257 (0x101) (AC-3, English)
Language                                 :  / English
Service name                             : CCTV3
Service provider                         : BGCTV
Service type                             : user defined
节目简介:
    央视《回声嘹亮》栏目组为全国观众,呈现一台庆祝中国共产党成立98周年特别节目——#颂歌献给党#。李思思、任鲁豫、王莉、汤非、乌兰图雅、张可盈、阿云嘎、刘和刚、霍勇、金波、陈小涛用精彩的节目表达了对党和国家的无限热爱。中央广播电视总台央视综艺频道庆祝中国共产党成立98周年特别节目——《颂歌献给党》7月1日晚黄金时间播出。


链接:https://pan.baidu.com/s/1f61d3TY0KpkxrlSqGm7GtQ 提取码:4x89

最新喜欢:

zyyzwyfzyyzwy...
xxf1207
侠客
侠客
  • 注册日期2016-03-09
  • 发帖数53
  • 影币81枚
  • 魔力值70点
  • 蓝光币15克拉
  • 社区居民
  • 忠实会员
沙发#
发布于:2019-07-04 10:06
这是我比较喜欢的。谢谢
飘域家园
侠客
侠客
  • 注册日期2016-12-06
  • 发帖数51
  • 影币62枚
  • 魔力值62点
  • 蓝光币2克拉
板凳#
发布于:2019-07-04 10:49
谢谢 !!
zyyzwyf
精灵王
精灵王
  • 注册日期2017-05-17
  • 发帖数1565
  • 影币2397枚
  • 魔力值752点
  • 蓝光币787克拉
  • 社区居民
  • 忠实会员
地板#
发布于:2019-07-04 11:52
感谢分享,感谢楼主!感谢论坛!
linsj
精灵王
精灵王
  • 注册日期2016-05-01
  • 发帖数155
  • 影币547枚
  • 魔力值1061点
  • 蓝光币7克拉
  • 社区居民
  • 忠实会员
4楼#
发布于:2019-07-06 18:34
这是我比较喜欢的。谢谢
zh1968
精灵王
精灵王
  • 注册日期2016-11-17
  • 发帖数325
  • 影币3159枚
  • 魔力值1515点
  • 蓝光币71克拉
  • 社区居民
  • 忠实会员
5楼#
发布于:2019-07-08 11:57
谢谢楼主分享
游客
返回顶部