福利发放鸡
论坛版主
论坛版主
  • 注册日期2017-03-24
  • 发帖数549
  • 影币7910枚
  • 魔力值1614点
  • 蓝光币2克拉
  • 社区居民
  • 忠实会员
  • 喜欢达人
  • 原创写手
阅读:1268回复:4

[其他]《壮丽70年 奋斗新时代——记者再走长征路主题采访 文化文艺慰问活动》.20190701.1080i.CCTV3.HDTV.H.264.DD5.1-FLTTH.ts 4.34G

楼主#
更多 发布于:2019-07-03 19:19

图片:SS_00001.jpg

图片:SS_00002.jpg

图片:SS_00003.jpg

图片:SS_00004.jpg

图片:SS_00005.jpg

图片:SS_00006.jpg



General
ID                                       : 1 (0x1)
Complete name                            : 壮丽70年·奋斗新时代.20190701.1080i.CCTV3.HDTV.H.264.DD5.1-FLTTH.ts
Format                                   : MPEG-TS
File size                                : 4.34 GiB
Duration                                 : 1 h 9 min
Overall bit rate mode                    : Variable
Overall bit rate                         : 8 952 kb/s
  
Video
ID                                       : 256 (0x100)
Menu ID                                  : 1 (0x1)
Format                                   : AVC
Format/Info                              : Advanced Video Codec
Format profile                           : High@L4
Format settings                          : CABAC / 3 Ref Frames
Format settings, CABAC                   : Yes
Format settings, RefFrames               : 3 frames
Format settings, GOP                     : M=3, N=15
Codec ID                                 : 27
Duration                                 : 1 h 9 min
Bit rate mode                            : Constant
Bit rate                                 : 7 800 kb/s
Width                                    : 1 920 pixels
Height                                   : 1 080 pixels
Display aspect ratio                     : 16:9
Frame rate                               : 25.000 FPS
Color space                              : YUV
Chroma subsampling                       : 4:2:0
Bit depth                                : 8 bits
Scan type                                : Interlaced
Scan type, store method                  : Separated fields
Scan order                               : Top Field First
Bits/(Pixel*Frame)                       : 0.150
Stream size                              : 3.91 GiB (90%)
Color range                              : Limited
Color primaries                          : BT.709
Transfer characteristics                 : BT.709
Matrix coefficients                      : BT.709
  
Audio
ID                                       : 257 (0x101)
Menu ID                                  : 1 (0x1)
Format                                   : AC-3
Format/Info                              : Audio Coding 3
Commercial name                          : Dolby Digital
Codec ID                                 : 129
Duration                                 : 1 h 9 min
Bit rate mode                            : Constant
Bit rate                                 : 448 kb/s
Channel(s)                               : 6 channels
Channel layout                           : L R C LFE Ls Rs
Sampling rate                            : 48.0 kHz
Frame rate                               : 31.250 FPS (1536 SPF)
Bit depth                                : 16 bits
Compression mode                         : Lossy
Delay relative to video                  : -211 ms
Stream size                              : 222 MiB (5%)
Language                                 : English
Service kind                             : Complete Main
  
Menu
ID                                       : 4096 (0x1000)
Menu ID                                  : 1 (0x1)
Duration                                 : 1 h 9 min
List                                     : 256 (0x100) (AVC) / 257 (0x101) (AC-3, English)
Language                                 :  / English
Service name                             : CCTV3
Service provider                         : BGCTV
Service type                             : user defined
节目介绍:
    在新中国成立70周年,红军长征出发85周年,由中宣部组织开展的“壮丽70年·奋斗新时代——记者再走长征路”主题采访活动正式启动,重温伟大远征,讲好长征故事,传递红色基因。 为配合此次“记者再走长征路”主题采访工作,经中宣部统一部署,中央广播电视总台在主题采访沿线将在江西于都、福建长汀、广西兴安、贵州遵义、四川泸定、宁夏将台堡等地进行六场形式多样、生动活泼的文化文艺慰问演出活动——《壮丽70年·奋斗新时代》,以此缅怀革命先烈、传承红色基因,深刻感受长征精神在新时代、新长征路上熠熠闪光的振奋力量。


链接:https://pan.baidu.com/s/1GIQ7vHJvWhqFNffbhFRasA 提取码:xhvr

最新喜欢:

zyyzwyfzyyzwy...
zuozuo
精灵王
精灵王
  • 注册日期2015-09-21
  • 发帖数912
  • 影币806枚
  • 魔力值2045点
  • 蓝光币230克拉
  • 社区居民
  • 忠实会员
沙发#
发布于:2019-07-04 09:52
1111111111
zyyzwyf
精灵王
精灵王
  • 注册日期2017-05-17
  • 发帖数1662
  • 影币2575枚
  • 魔力值849点
  • 蓝光币803克拉
  • 社区居民
  • 忠实会员
板凳#
发布于:2019-07-04 11:44
感谢分享,感谢楼主!感谢论坛!
飘域家园
侠客
侠客
  • 注册日期2016-12-06
  • 发帖数76
  • 影币105枚
  • 魔力值92点
  • 蓝光币2克拉
地板#
发布于:2019-07-05 08:00
感谢分享!
音乐之声9
圣骑士
圣骑士
  • 注册日期2018-10-06
  • 发帖数127
  • 影币119枚
  • 魔力值614点
  • 蓝光币63克拉
  • 社区居民
  • 忠实会员
4楼#
发布于:2019-08-28 14:53
长征是宣言书,长征是宣传队,长征是播种机,谢谢分享。
游客
返回顶部