福利发放鸡
论坛版主
论坛版主
  • 注册日期2017-03-24
  • 发帖数522
  • 影币7468枚
  • 魔力值1546点
  • 蓝光币2克拉
  • 社区居民
  • 忠实会员
  • 喜欢达人
  • 原创写手
阅读:796回复:4

[其他]2019年非遗公开课 Intangible.Cultural.Heritage.20190607.1080i.CCTV4.HDTV.H.264.DD5.1-FLTTH.ts 8.34G

楼主#
更多 发布于:2019-06-11 18:29

图片:SS_00031.jpg

图片:SS_00032.jpg

图片:SS_00033.jpg

图片:SS_00037.jpg

图片:SS_00038.jpg

图片:SS_00039.jpg



General
ID                                       : 22 (0x16)
Complete name                            : Intangible.Cultural.Heritage.20190607.1080i.CCTV4.HDTV.H.264.DD5.1-FLTTH.ts
Format                                   : MPEG-TS
File size                                : 8.34 GiB
Duration                                 : 1 h 39 min
Overall bit rate mode                    : Variable
Overall bit rate                         : 12.0 Mb/s
  
Video
ID                                       : 514 (0x202)
Menu ID                                  : 853 (0x355)
Format                                   : AVC
Format/Info                              : Advanced Video Codec
Format profile                           : High@L4.1
Format settings                          : CABAC / 4 Ref Frames
Format settings, CABAC                   : Yes
Format settings, RefFrames               : 4 frames
Format settings, GOP                     : M=4, N=24
Codec ID                                 : 27
Duration                                 : 1 h 39 min
Bit rate                                 : 10.9 Mb/s
Maximum bit rate                         : 11.5 Mb/s
Width                                    : 1 920 pixels
Height                                   : 1 080 pixels
Display aspect ratio                     : 16:9
Frame rate                               : 25.000 FPS
Color space                              : YUV
Chroma subsampling                       : 4:2:0
Bit depth                                : 8 bits
Scan type                                : Interlaced
Scan type, store method                  : Separated fields
Scan order                               : Top Field First
Bits/(Pixel*Frame)                       : 0.211
Stream size                              : 7.61 GiB (91%)
Color range                              : Limited
Color primaries                          : BT.709
Transfer characteristics                 : BT.709
Matrix coefficients                      : BT.709
  
Audio
ID                                       : 670 (0x29E)
Menu ID                                  : 853 (0x355)
Format                                   : AC-3
Format/Info                              : Audio Coding 3
Commercial name                          : Dolby Digital
Codec ID                                 : 6
Duration                                 : 1 h 39 min
Bit rate mode                            : Constant
Bit rate                                 : 448 kb/s
Channel(s)                               : 6 channels
Channel layout                           : L R C LFE Ls Rs
Sampling rate                            : 48.0 kHz
Frame rate                               : 31.250 FPS (1536 SPF)
Bit depth                                : 16 bits
Compression mode                         : Lossy
Delay relative to video                  : -1 s 308 ms
Stream size                              : 319 MiB (4%)
Language                                 : English
Service kind                             : Complete Main
  
Menu
ID                                       : 258 (0x102)
Menu ID                                  : 853 (0x355)
Duration                                 : 1 h 39 min
List                                     : 514 (0x202) (AVC) / 670 (0x29E) (AC-3, English)
Language                                 :  / English
Maximum bit rate                         : 11948400
节目简介:
    中华五千年文化源远流长,非物质文化遗产熠熠生辉。每年6月的第二个周六是我国“文化和自然遗产日”,2019年是我国加入联合国教科文组织《保护非物质文化遗产公约》15周年。值此时间节点,中央广播电视总台央视综艺频道会同文化和旅游部非物质文化遗产司、文化和旅游部民族民间文艺发展中心等共同制作推出了“文化和自然遗产日”非遗宣传特别节目《非遗公开课》。


链接:https://pan.baidu.com/s/1wIPqnTz-h0QwF-xsouCMow 提取码:vnrf
冷月梦寒
精灵王
精灵王
  • 注册日期2017-12-18
  • 发帖数1420
  • 影币3650枚
  • 魔力值1063点
  • 蓝光币158克拉
  • 社区居民
  • 最爱沙发
  • 忠实会员
沙发#
发布于:2019-06-11 19:32
谢谢楼主分享
zyyzwyf
精灵王
精灵王
  • 注册日期2017-05-17
  • 发帖数1574
  • 影币2419枚
  • 魔力值777点
  • 蓝光币788克拉
  • 社区居民
  • 忠实会员
板凳#
发布于:2019-06-12 07:26
感谢达人分享好资源
sd行云流水
圣骑士
圣骑士
  • 注册日期2018-03-19
  • 发帖数549
  • 影币437枚
  • 魔力值232点
  • 蓝光币188克拉
地板#
发布于:2019-06-12 18:46
感谢楼主分享好资源!
sharkandwater
终生无尚荣耀蓝光粉
终生无尚荣耀蓝光粉
  • 注册日期2015-09-27
  • 发帖数56
  • 影币251枚
  • 魔力值554点
  • 蓝光币11克拉
  • 社区居民
  • 忠实会员
  • VIP会员
  • 荣誉会员
4楼#
发布于:2019-06-17 16:06
感谢分享。
游客
返回顶部