福利发放鸡
论坛版主
论坛版主
  • 注册日期2017-03-24
  • 发帖数522
  • 影币7468枚
  • 魔力值1546点
  • 蓝光币2克拉
  • 社区居民
  • 忠实会员
  • 喜欢达人
  • 原创写手
阅读:649回复:5

[其他]2019央视综艺频道端午特别节目 最潮是端午.20190607.1080i.CCTV3.HDTV.H.264.DD5.1-FLTTH.ts 6.36G

楼主#
更多 发布于:2019-06-11 18:23

图片:SS_00025.jpg

图片:SS_00026.jpg

图片:SS_00027.jpg

图片:SS_00028.jpg

图片:SS_00029.jpg

图片:SS_00030.jpg



General
ID                                       : 1 (0x1)
Complete name                            : 最潮是端午.20190607.1080i.CCTV3.HDTV.H.264.DD5.1-FLTTH.ts
Format                                   : MPEG-TS
File size                                : 6.36 GiB
Duration                                 : 1 h 41 min
Overall bit rate mode                    : Variable
Overall bit rate                         : 8 953 kb/s
  
Video
ID                                       : 256 (0x100)
Menu ID                                  : 1 (0x1)
Format                                   : AVC
Format/Info                              : Advanced Video Codec
Format profile                           : High@L4
Format settings                          : CABAC / 3 Ref Frames
Format settings, CABAC                   : Yes
Format settings, RefFrames               : 3 frames
Format settings, GOP                     : M=3, N=15
Codec ID                                 : 27
Duration                                 : 1 h 41 min
Bit rate mode                            : Constant
Bit rate                                 : 7 800 kb/s
Width                                    : 1 920 pixels
Height                                   : 1 080 pixels
Display aspect ratio                     : 16:9
Frame rate                               : 25.000 FPS
Color space                              : YUV
Chroma subsampling                       : 4:2:0
Bit depth                                : 8 bits
Scan type                                : Interlaced
Scan type, store method                  : Separated fields
Scan order                               : Top Field First
Bits/(Pixel*Frame)                       : 0.150
Stream size                              : 5.72 GiB (90%)
Color range                              : Limited
Color primaries                          : BT.709
Transfer characteristics                 : BT.709
Matrix coefficients                      : BT.709
  
Audio
ID                                       : 257 (0x101)
Menu ID                                  : 1 (0x1)
Format                                   : AC-3
Format/Info                              : Audio Coding 3
Commercial name                          : Dolby Digital
Codec ID                                 : 129
Duration                                 : 1 h 41 min
Bit rate mode                            : Constant
Bit rate                                 : 448 kb/s
Channel(s)                               : 6 channels
Channel layout                           : L R C LFE Ls Rs
Sampling rate                            : 48.0 kHz
Frame rate                               : 31.250 FPS (1536 SPF)
Bit depth                                : 16 bits
Compression mode                         : Lossy
Delay relative to video                  : -223 ms
Stream size                              : 326 MiB (5%)
Language                                 : English
Service kind                             : Complete Main
  
Menu
ID                                       : 4096 (0x1000)
Menu ID                                  : 1 (0x1)
Duration                                 : 1 h 41 min
List                                     : 256 (0x100) (AVC) / 257 (0x101) (AC-3, English)
Language                                 :  / English
Service name                             : CCTV3
Service provider                         : BGCTV
Service type                             : user defined
节目介绍:
    粽香浓情六月天,潮话端午又一年。恰逢共和国70周年华诞之际,中央广播电视总台央视综艺频道倾力打造2019年端午特别节目《最潮是端午》,用时代“潮范”弘扬传统文化,以赤诚之心诉说家国情怀。
    节目以“最潮是端午”为主题,由尼格买提、管彤担当主持人,马跃、高晓攀、伊一、孙茜组成“潮团”参与节目互动。
    “潮”是特别节目着重挖掘和打造的端午灵魂。节目以当下新时代的视角重新定位端午文化,从《潮·乐端午》、《潮·食端午》、《潮·品端午》、《潮·行端午》四个维度为端午佳节做一个全方位、多角度、最新“潮”的阐释,打造最潮中国节。将传统的端午文化与当代生活相结合,新时代创造新方式,新方式加入新元素,在传承传统文化的前提下给予一个现代的期许,拥抱最美新时代。
    端午节作为我国首个入选世界非遗的传统节日,凝聚着中华民族自强不息的精神追求,蕴含了深邃丰厚的文化内涵。千年以来,华夏儿女如何潮乐过端午?各地又有那些不同的玩法?节目派出多支外采“潮”团,为观众带来了中国南极中山站、中铁建设驻非洲项目团队、新疆红旗拉甫出入境边防检查站前哨班、海南三沙、湖北秭归等不同地域的端午祝福以及好玩的的民俗项目,从各个地方传回端午的欢乐,带观众体会天涯共此时的节目氛围,更有马跃、高晓攀、伊一、孙茜组成的“潮团”现场体验端午民俗——立鸡蛋、斗草,以一枚小小的鸡蛋和一根细细的青草潮玩端午!
    端午食粽的风俗,千百年来在我国盛行不衰。每年端阳节,百姓家家都要浸糯米、洗粽叶、包粽子,品种多样、口味繁多。对中国人而言,粽子不仅是舌尖上的美味,更是一个民族难以割舍的情怀。粽有千种风情,这边风景独好:航天专家现场带来最具潮范儿和科技感的太空粽,和大家共话宇航员的端午粽情;端午“潮团”现场包粽子,用来自雄安新区白洋淀水边的芦苇叶和陕北延川县的脱贫幸福枣以及中国工程院袁隆平院士领导研发的青岛海水稻包出最潮中国粽,点赞最美中国范儿!
    端午节从古至今都是色彩斑斓。人们争相佩戴用艾草制成的花环,系五色绳,佩带香囊、香包等等。这些多彩的传统民俗在时下中国年轻人的眼中依旧散发着浓浓的中国韵味。节目派出外采“潮团”探访多个年轻团队,寻找最具创意的端午文创产品,感受年轻人的端午情怀和创意之美。
    美人之美,美美与共。端午节越来越有国际味道,并逐渐成为世界性节日。从古丝绸之路开始,中华传统节日传入周边国家,极大地带动了节日文化风俗的传播。
    节目特别邀请“一带一路”沿线留学生现场访谈,他们和潮团一起共话端午情缘,表现中华传统文化的多维度,以及在历史变迁及空间转换转中的端午行走潮流。
    此外,节目紧扣新中国成立70周年这一时间节点,从“乐”、“食”、“品”、“行”四个维度解读新时代的端午文化,将弘扬优秀传统文化和发展现实文化有机统一起来,赋予端午节新的内容。节目既有李谷一、刘秉义、叶佩英、王洁实等老一辈艺术家坐镇,也有汪正正、林永健、徐涛、降央卓玛、王传越、金婷婷、李菁、玖月奇迹、声入人心组合、SNH48组合、宋轶、王晓晨等中青年歌唱家和演员倾情演绎,通过情景表演《九歌》、歌曲《离骚》、《最美中国范儿》、《我和我的祖国》、《龙文》、《我爱你中国》等主题鲜明、内容深刻、振奋人心的文艺节目,弘扬节日文化,传承中华美德,诉说家国情怀,与祖国人民和全球华人共贺祖国华诞!

下载地址:
https://pan.baidu.com/s/10Tz6xy-TxXGDlWDzc0wh0Q 提取码:rimg

最新喜欢:

zyyzwyfzyyzwy...
冷月梦寒
精灵王
精灵王
  • 注册日期2017-12-18
  • 发帖数1420
  • 影币3650枚
  • 魔力值1063点
  • 蓝光币158克拉
  • 社区居民
  • 最爱沙发
  • 忠实会员
沙发#
发布于:2019-06-11 19:34
谢谢楼主分享
dszsdyx
精灵王
精灵王
  • 注册日期2016-09-22
  • 发帖数997
  • 影币5598枚
  • 魔力值2010点
  • 蓝光币574克拉
  • 社区居民
  • 忠实会员
板凳#
发布于:2019-06-12 04:24
    粽香浓情六月天,潮话端午又一年。恰逢共和国70周年华诞之际,中央广播电视总台央视综艺频道倾力打造2019年端午特别节目《最潮是端午》,用时代“潮范”弘扬传统文化,以赤诚之心诉说家国情怀。
    节目以“最潮是端午”为主题,由尼格买提、管彤担当主持人,马跃、高晓攀、伊一、孙茜组成“潮团”参与节目互动。
    “潮”是特别节目着重挖掘和打造的端午灵魂。节目以当下新时代的视角重新定位端午文化,从《潮·乐端午》、《潮·食端午》、《潮·品端午》、《潮·行端午》四个维度为端午佳节做一个全方位、多角度、最新“潮”的阐释,打造最潮中国节。将传统的端午文化与当代生活相结合,新时代创造新方式,新方式加入新元素,在传承传统文化的前提下给予一个现代的期许,拥抱最美新时代。
    端午节作为我国首个入选世界非遗的传统节日,凝聚着中华民族自强不息的精神追求,蕴含了深邃丰厚的文化内涵。千年以来,华夏儿女如何潮乐过端午?各地又有那些不同的玩法?节目派出多支外采“潮”团,为观众带来了中国南极中山站、中铁建设驻非洲项目团队、新疆红旗拉甫出入境边防检查站前哨班、海南三沙、湖北秭归等不同地域的端午祝福以及好玩的的民俗项目,从各个地方传回端午的欢乐,带观众体会天涯共此时的节目氛围,更有马跃、高晓攀、伊一、孙茜组成的“潮团”现场体验端午民俗——立鸡蛋、斗草,以一枚小小的鸡蛋和一根细细的青草潮玩端午!
    端午食粽的风俗,千百年来在我国盛行不衰。每年端阳节,百姓家家都要浸糯米、洗粽叶、包粽子,品种多样、口味繁多。对中国人而言,粽子不仅是舌尖上的美味,更是一个民族难以割舍的情怀。粽有千种风情,这边风景独好:航天专家现场带来最具潮范儿和科技感的太空粽,和大家共话宇航员的端午粽情;端午“潮团”现场包粽子,用来自雄安新区白洋淀水边的芦苇叶和陕北延川县的脱贫幸福枣以及中国工程院袁隆平院士领导研发的青岛海水稻包出最潮中国粽,点赞最美中国范儿!
    端午节从古至今都是色彩斑斓。人们争相佩戴用艾草制成的花环,系五色绳,佩带香囊、香包等等。这些多彩的传统民俗在时下中国年轻人的眼中依旧散发着浓浓的中国韵味。节目派出外采“潮团”探访多个年轻团队,寻找最具创意的端午文创产品,感受年轻人的端午情怀和创意之美。
    美人之美,美美与共。端午节越来越有国际味道,并逐渐成为世界性节日。从古丝绸之路开始,中华传统节日传入周边国家,极大地带动了节日文化风俗的传播。
    节目特别邀请“一带一路”沿线留学生现场访谈,他们和潮团一起共话端午情缘,表现中华传统文化的多维度,以及在历史变迁及空间转换转中的端午行走潮流。
    此外,节目紧扣新中国成立70周年这一时间节点,从“乐”、“食”、“品”、“行”四个维度解读新时代的端午文化,将弘扬优秀传统文化和发展现实文化有机统一起来,赋予端午节新的内容。节目既有李谷一、刘秉义、叶佩英、王洁实等老一辈艺术家坐镇,也有汪正正、林永健、徐涛、降央卓玛、王传越、金婷婷、李菁、玖月奇迹、声入人心组合、SNH48组合、宋轶、王晓晨等中青年歌唱家和演员倾情演绎,通过情景表演《九歌》、歌曲《离骚》、《最美中国范儿》、《我和我的祖国》、《龙文》、《我爱你中国》等主题鲜明、内容深刻、振奋人心的文艺节目,弘扬节日文化,传承中华美德,诉说家国情怀,与祖国人民和全球华人共贺祖国华诞!
zyyzwyf
精灵王
精灵王
  • 注册日期2017-05-17
  • 发帖数1574
  • 影币2419枚
  • 魔力值777点
  • 蓝光币788克拉
  • 社区居民
  • 忠实会员
地板#
发布于:2019-06-12 07:37
感谢达人分享精彩视频
zuozuo
精灵王
精灵王
  • 注册日期2015-09-21
  • 发帖数901
  • 影币804枚
  • 魔力值1861点
  • 蓝光币232克拉
  • 社区居民
  • 忠实会员
4楼#
发布于:2019-06-12 07:58
1111111111111111
音乐之声9
圣骑士
圣骑士
  • 注册日期2018-10-06
  • 发帖数123
  • 影币115枚
  • 魔力值572点
  • 蓝光币63克拉
  • 社区居民
  • 忠实会员
5楼#
发布于:2019-06-18 14:34
楼主分享辛苦了,谢谢。
游客
返回顶部