福利发放鸡
论坛版主
论坛版主
  • 注册日期2017-03-24
  • 发帖数505
  • 影币7179枚
  • 魔力值1456点
  • 蓝光币2克拉
  • 社区居民
  • 忠实会员
  • 喜欢达人
  • 原创写手
阅读:216回复:3

[其他]相聚中国节·端午.20190607.1080i.CCTV1.HDTV.H.264.DD5.1-FLTTH.ts 11.5G

楼主#
更多 发布于:2019-06-11 18:14

图片:SS_00019.jpg

图片:SS_00020.jpg

图片:SS_00021.jpg

图片:SS_00022.jpg

图片:SS_00023.jpg

图片:SS_00024.jpg



General
ID                                       : 1 (0x1)
Complete name                            : 相聚中国节·端午.20190607.1080i.CCTV1.HDTV.H.264.DD5.1-FLTTH.ts
Format                                   : MPEG-TS
File size                                : 11.5 GiB
Duration                                 : 3 h 15 min
Overall bit rate mode                    : Variable
Overall bit rate                         : 8 414 kb/s
  
Video
ID                                       : 256 (0x100)
Menu ID                                  : 1 (0x1)
Format                                   : AVC
Format/Info                              : Advanced Video Codec
Format profile                           : High@L4
Format settings                          : CABAC / 2 Ref Frames
Format settings, CABAC                   : Yes
Format settings, RefFrames               : 2 frames
Format settings, GOP                     : M=3, N=12
Codec ID                                 : 27
Duration                                 : 3 h 15 min
Bit rate                                 : 7 546 kb/s
Width                                    : 1 920 pixels
Height                                   : 1 080 pixels
Display aspect ratio                     : 16:9
Frame rate                               : 25.000 FPS
Color space                              : YUV
Chroma subsampling                       : 4:2:0
Bit depth                                : 8 bits
Scan type                                : Interlaced
Scan type, store method                  : Separated fields
Scan order                               : Top Field First
Bits/(Pixel*Frame)                       : 0.146
Stream size                              : 10.3 GiB (90%)
  
Audio
ID                                       : 257 (0x101)
Menu ID                                  : 1 (0x1)
Format                                   : AC-3
Format/Info                              : Audio Coding 3
Commercial name                          : Dolby Digital
Codec ID                                 : 129
Duration                                 : 3 h 15 min
Bit rate mode                            : Constant
Bit rate                                 : 448 kb/s
Channel(s)                               : 6 channels
Channel layout                           : L R C LFE Ls Rs
Sampling rate                            : 48.0 kHz
Frame rate                               : 31.250 FPS (1536 SPF)
Bit depth                                : 16 bits
Compression mode                         : Lossy
Delay relative to video                  : -258 ms
Stream size                              : 627 MiB (5%)
Language                                 : English
Service kind                             : Complete Main
  
Menu
ID                                       : 4096 (0x1000)
Menu ID                                  : 1 (0x1)
Duration                                 : 3 h 15 min
List                                     : 256 (0x100) (AVC) / 257 (0x101) (AC-3, English)
Language                                 :  / English
Service name                             : CCTV1
Service provider                         : BGCTV
Service type                             : user defined
节目简介:
    赛龙舟、吃粽子,看央视综合频道推出《相聚中国节 • 端午》特别节目!超级阵容——大国工程背后的团队齐聚!他们是中国航天五院总体部深空探测航天器系统总体设计团队、北京大兴国际机场规划建设群体、航天科工集团二院二十三所天气雷达团队,以及袁隆平院士带领的青岛海水稻研发团队。你想不想知道嫦娥探月工程发现了月球的哪些秘密?云竟然还有CT扫描机?作为新世界“七大奇迹”之首的北京大兴国际机场,挑战了哪些不可能?盐碱地里长出来的水稻到底能不能吃?所有这些,都由这些亲历者在现场,为大家一一解密。除了趣味横生的知识普及,现场还是豪华的视听盛宴。国乐艺术家方锦龙用复原失传千年的五弦琵琶弹奏《十面埋伏》,知名非遗网红女团“侗家浪漫七仙女”则展示了民歌之美。此外还有“庐州蛋雕” 省级非遗传承人王剑在蛋壳方寸之地上的作画;“95后”北京面人郎郎佳子彧当场挑战一分钟面塑,还有国家级口技传承人牛玉亮、江海洋师徒精彩“玩”声音,徐州香包代表性传承人井秋红创意香包秀,都让人目不暇接,大饱眼福。2019年6月7日,央视综合频道看新时代的新端午,你将感受科技与艺术共融,情感与互动并举,仪式与祝福同在。


链接:https://pan.baidu.com/s/1rbYYQPLduSaJDFTa7oqgow 提取码:xpdr
冷月梦寒
精灵王
精灵王
  • 注册日期2017-12-18
  • 发帖数1328
  • 影币3305枚
  • 魔力值955点
  • 蓝光币159克拉
  • 社区居民
  • 最爱沙发
  • 忠实会员
沙发#
发布于:2019-06-11 19:37
谢谢楼主分享
zuozuo
精灵王
精灵王
  • 注册日期2015-09-21
  • 发帖数877
  • 影币781枚
  • 魔力值1747点
  • 蓝光币231克拉
  • 社区居民
  • 忠实会员
板凳#
发布于:2019-06-12 07:56
2222222222
dszsdyx
精灵王
精灵王
  • 注册日期2016-09-22
  • 发帖数953
  • 影币5334枚
  • 魔力值1918点
  • 蓝光币570克拉
  • 社区居民
  • 忠实会员
地板#
发布于:2019-06-13 06:23
    赛龙舟、吃粽子,看央视综合频道推出《相聚中国节 • 端午》特别节目!超级阵容——大国工程背后的团队齐聚!他们是中国航天五院总体部深空探测航天器系统总体设计团队、北京大兴国际机场规划建设群体、航天科工集团二院二十三所天气雷达团队,以及袁隆平院士带领的青岛海水稻研发团队。你想不想知道嫦娥探月工程发现了月球的哪些秘密?云竟然还有CT扫描机?作为新世界“七大奇迹”之首的北京大兴国际机场,挑战了哪些不可能?盐碱地里长出来的水稻到底能不能吃?所有这些,都由这些亲历者在现场,为大家一一解密。除了趣味横生的知识普及,现场还是豪华的视听盛宴。国乐艺术家方锦龙用复原失传千年的五弦琵琶弹奏《十面埋伏》,知名非遗网红女团“侗家浪漫七仙女”则展示了民歌之美。此外还有“庐州蛋雕” 省级非遗传承人王剑在蛋壳方寸之地上的作画;“95后”北京面人郎郎佳子彧当场挑战一分钟面塑,还有国家级口技传承人牛玉亮、江海洋师徒精彩“玩”声音,徐州香包代表性传承人井秋红创意香包秀,都让人目不暇接,大饱眼福。2019年6月7日,央视综合频道看新时代的新端午,你将感受科技与艺术共融,情感与互动并举,仪式与祝福同在。
游客
返回顶部