福利发放鸡
论坛版主
论坛版主
  • 注册日期2017-03-24
  • 发帖数505
  • 影币7179枚
  • 魔力值1456点
  • 蓝光币2克拉
  • 社区居民
  • 忠实会员
  • 喜欢达人
  • 原创写手
阅读:168回复:2

[其他]2019年中华龙舟大赛福州站决赛 China.Longzhou.Tournament.2019.Fuzhou.20190607.1080i.CCTV1.HDTV.H.264.DD5.1-FLTTH.ts 6.56G

楼主#
更多 发布于:2019-06-11 18:06

图片:SS_00007.jpg

图片:SS_00008.jpg

图片:SS_00009.jpg

图片:SS_00010.jpg

图片:SS_00011.jpg

图片:SS_00012.jpg



General
ID                                       : 1 (0x1)
Complete name                            : China.Longzhou.Tournament.2019.Fuzhou.20190607.1080i.CCTV1.HDTV.H.264.DD5.1-FLTTH.ts
Format                                   : MPEG-TS
File size                                : 6.56 GiB
Duration                                 : 1 h 51 min
Overall bit rate mode                    : Variable
Overall bit rate                         : 8 414 kb/s
  
Video
ID                                       : 256 (0x100)
Menu ID                                  : 1 (0x1)
Format                                   : AVC
Format/Info                              : Advanced Video Codec
Format profile                           : High@L4
Format settings                          : CABAC / 2 Ref Frames
Format settings, CABAC                   : Yes
Format settings, RefFrames               : 2 frames
Format settings, GOP                     : M=3, N=12
Codec ID                                 : 27
Duration                                 : 1 h 51 min
Bit rate                                 : 7 546 kb/s
Width                                    : 1 920 pixels
Height                                   : 1 080 pixels
Display aspect ratio                     : 16:9
Frame rate                               : 25.000 FPS
Color space                              : YUV
Chroma subsampling                       : 4:2:0
Bit depth                                : 8 bits
Scan type                                : Interlaced
Scan type, store method                  : Separated fields
Scan order                               : Top Field First
Bits/(Pixel*Frame)                       : 0.146
Stream size                              : 5.89 GiB (90%)
  
Audio
ID                                       : 257 (0x101)
Menu ID                                  : 1 (0x1)
Format                                   : AC-3
Format/Info                              : Audio Coding 3
Commercial name                          : Dolby Digital
Codec ID                                 : 129
Duration                                 : 1 h 51 min
Bit rate mode                            : Constant
Bit rate                                 : 448 kb/s
Channel(s)                               : 6 channels
Channel layout                           : L R C LFE Ls Rs
Sampling rate                            : 48.0 kHz
Frame rate                               : 31.250 FPS (1536 SPF)
Bit depth                                : 16 bits
Compression mode                         : Lossy
Delay relative to video                  : -514 ms
Stream size                              : 358 MiB (5%)
Language                                 : English
Service kind                             : Complete Main
  
Menu
ID                                       : 4096 (0x1000)
Menu ID                                  : 1 (0x1)
Duration                                 : 1 h 51 min
List                                     : 256 (0x100) (AVC) / 257 (0x101) (AC-3, English)
Language                                 :  / English
Service name                             : CCTV1
Service provider                         : BGCTV
Service type                             : user defined
节目简介:
    中华龙舟大赛国内赛事级别最高、竞技水平最高、奖金总额最高的顶级龙舟赛事。2019全年共有八站比赛,分别为海南万宁站、长沙芙蓉站、江苏盐城站、福建福州站、成都简阳站、南京六合站、重庆合川站、海南陵水总决赛。
    北京时间6月7日,2019年中华龙舟大赛福建福州站展开决赛阶段争夺,聊城大学、东北电力大学、江西永通虎山等队伍发挥出色,夺得多个项目的冠军。


链接:https://pan.baidu.com/s/1Tl3Xl4ez9fkfARqhuSMtIw 提取码:pax5
冷月梦寒
精灵王
精灵王
  • 注册日期2017-12-18
  • 发帖数1328
  • 影币3305枚
  • 魔力值955点
  • 蓝光币159克拉
  • 社区居民
  • 最爱沙发
  • 忠实会员
沙发#
发布于:2019-06-11 19:38
谢谢楼主分享
zyyzwyf
精灵王
精灵王
  • 注册日期2017-05-17
  • 发帖数1521
  • 影币2301枚
  • 魔力值711点
  • 蓝光币769克拉
  • 社区居民
  • 忠实会员
板凳#
发布于:2019-06-12 07:40
谢谢楼主分享精彩资源
游客
返回顶部