福利发放鸡
论坛版主
论坛版主
  • 注册日期2017-03-24
  • 发帖数505
  • 影币7179枚
  • 魔力值1456点
  • 蓝光币2克拉
  • 社区居民
  • 忠实会员
  • 喜欢达人
  • 原创写手
阅读:335回复:2

[纪录片]稻米的故事 The.Story.of.Rice.2019.1080i.CCTV9.HDTV.H.264-FLTTH 6.05G

楼主#
更多 发布于:2019-06-11 18:00

图片:SS_00013.jpg

图片:SS_00014.jpg

图片:SS_00015.jpg

图片:SS_00016.jpg

图片:SS_00017.jpg

图片:SS_00018.jpg



General (Sample)
ID                                       : 1 (0x1)
Complete name                            : The.Story.of.Rice.2019.E04.1080i.CCTV9.HDTV.H.264.MPEG-FLTTH.ts
Format                                   : MPEG-TS
File size                                : 1.61 GiB
Duration                                 : 28 min 28 s
Overall bit rate mode                    : Constant
Overall bit rate                         : 8 099 kb/s
  
Video
ID                                       : 4113 (0x1011)
Menu ID                                  : 1 (0x1)
Format                                   : AVC
Format/Info                              : Advanced Video Codec
Format profile                           : High@L4
Format settings                          : CABAC / 3 Ref Frames
Format settings, CABAC                   : Yes
Format settings, RefFrames               : 3 frames
Format settings, GOP                     : M=2, N=25
Codec ID                                 : 27
Duration                                 : 28 min 28 s
Bit rate mode                            : Constant
Bit rate                                 : 7 569 kb/s
Nominal bit rate                         : 6 990 kb/s
Width                                    : 1 920 pixels
Height                                   : 1 080 pixels
Display aspect ratio                     : 16:9
Frame rate                               : 25.000 FPS
Color space                              : YUV
Chroma subsampling                       : 4:2:0
Bit depth                                : 8 bits
Scan type                                : Progressive
Bits/(Pixel*Frame)                       : 0.146
Stream size                              : 1.51 GiB (93%)
  
Audio
ID                                       : 4352 (0x1100)
Menu ID                                  : 1 (0x1)
Format                                   : MPEG Audio
Format version                           : Version 1
Format profile                           : Layer 2
Codec ID                                 : 3
Duration                                 : 28 min 28 s
Bit rate mode                            : Constant
Bit rate                                 : 128 kb/s
Channel(s)                               : 2 channels
Sampling rate                            : 48.0 kHz
Frame rate                               : 41.667 FPS (1152 SPF)
Compression mode                         : Lossy
Delay relative to video                  : -12 ms
Stream size                              : 26.1 MiB (2%)
  
Menu
ID                                       : 256 (0x100)
Menu ID                                  : 1 (0x1)
Duration                                 : 28 min 28 s
List                                     : 4113 (0x1011) (AVC) / 4352 (0x1100) (MPEG Audio)
Service type                             : digital television
纪录片简介:
    吉林省拥有国际公认的黄金水稻带的核心区域,在我国粮食安全与生态安全方面具有战略地位。纪录片《稻米的故事》以吉林省稻米种植区域分布、土壤特征及生态环境等自然条件为基础,筛选了10位不同类型的稻米种植业人物,以他们在一年四季水稻生产中的经历为主线,以水稻一年四季的生长变化为核心,以吉林省自然生态和历史文化作为辅助线索,以生命的轮回、情感的延续、文化的传承为表达主题,通过展示人物的生产生活、喜怒哀乐、人生情感,展现这方水土所锻造出来的人文精神与文化底蕴。
    该片通过连续的结构方式,将人物和水稻相依相守的生命历程贯穿始终,并将整个过程划分为5个阶段,归纳出5个连续递进的主题,分别是因缘、时遇、造化、和合、轮回,最终形成人与水稻、人与自然命运交织的情感故事。稻米作为农作物没有生命,该片以东北鲜明的季节变化为背景,将水稻作为独立的主体,塑造其与人类共通的成长历程,以人喻稻,以稻喻人,作为农业题材纪录片,不失为一种有效的探索方式。
    作为吉林省首部全方位解读稻米种植业的纪录片,《稻米的故事》不仅积极探索吉林乡村振兴、农民安居乐业的有效途径,更放眼未来,探讨关乎人类命运的粮食安全和如何建设生态农业问题,体现了吉林省作为农业大省的情怀与担当。


下载地址(全4集):
https://pan.baidu.com/s/1d6M9ZMIvpOyCYUM8KjdwfQ 提取码:q67i

最新喜欢:

zyyzwyfzyyzwy...
冷月梦寒
精灵王
精灵王
  • 注册日期2017-12-18
  • 发帖数1328
  • 影币3305枚
  • 魔力值955点
  • 蓝光币159克拉
  • 社区居民
  • 最爱沙发
  • 忠实会员
沙发#
发布于:2019-06-11 19:40
谢谢楼主分享
zyyzwyf
精灵王
精灵王
  • 注册日期2017-05-17
  • 发帖数1521
  • 影币2301枚
  • 魔力值711点
  • 蓝光币769克拉
  • 社区居民
  • 忠实会员
板凳#
发布于:2019-06-12 07:32
感谢楼主分享精彩资源
游客
返回顶部