乐曲可乐
精灵王
精灵王
  • 注册日期2015-07-30
  • 发帖数118
  • 影币167枚
  • 魔力值921点
  • 蓝光币0克拉
  • 社区居民
  • 忠实会员
阅读:1301回复:9

[动作]血滴子.The.Flying.Guillotine.1975.1080p.BluRay.x264-GHOULS 7.65GB

楼主#
更多 发布于:2019-06-07 10:51

图片:血滴子 p2496902793.jpg





导演: 何梦华
编剧: 倪匡
主演: 陈观泰 / 汪禹 / 谷峰 / 韦弘 / 艾蒂 / 刘午琪 / 许冠英
类型: 剧情 / 动作 / 武侠 / 古装
制片国家/地区: 香港
语言: 汉语普通话
上映日期: 1975-02-18
片长: USA: 111 分钟
又名: The Flying Guillotine
IMDb链接: tt0071512

故事发生在清朝雍正年间,民间能人志士对雍正(江洋 饰)的暴政口诛笔伐,为了肃清这些反对的声音,雍正大兴文字狱,凡有忤逆者,皆满门抄斩。与此同时,雍正集结了一支护卫队,使用残酷的处刑器具血滴子,杀尽天下胆敢说出真话之人。
谢天富(汪禹 饰)是护卫队中的一员,很快,他便发现,自己所杀之人,竟然皆是正义勇敢的有志之士,遂对雍正的真正意图产生了怀疑,之后,谢天富死于非命。同僚的死让马腾(陈观秦 饰)看清了事件的真相,他决心金盆洗手,连夜潜逃出京。之后,马腾来到了地处偏远的深山村庄之中,隐姓埋名,并娶了玉贞(刘午琪 饰)为妻,就当他以为平静的生活即将继续之时,雍正派出的杀手已经步步逼近。


Video
ID : 1
Format : AVC
Format/Info : Advanced Video Codec
Format profile : High@L4.1
Format settings, CABAC : Yes
Format settings, ReFrames : 5 frames
Codec ID : V_MPEG4/ISO/AVC
Duration : 1h 45mn
Bit rate : 9 737 Kbps
Width : 1 920 pixels
Height : 816 pixels
Display aspect ratio : 2.35:1
Frame rate mode : Constant
Frame rate : 23.976 (24000/1001) fps
Color space : YUV
Chroma subsampling : 4:2:0
Bit depth : 8 bits
Scan type : Progressive
Bits/(Pixel*Frame) : 0.259
Stream size : 7.03 GiB (92%)
Writing library : x264 core 152 r2851kMod ba24899
Encoding settings : cabac=1 / ref=5 / deblock=1:-3:-3 / analyse=0x3:0x133 / me=umh / subme=8 / psy=1 / fade_compensate=0.00 / psy_rd=1.00:0.00 / mixed_ref=1 / me_range=16 / chroma_me=1 / trellis=1 / 8x8dct=1 / cqm=0 / deadzone=21,11 / fast_pskip=0 / chroma_qp_offset=-2 / threads=6 / lookahead_threads=1 / sliced_threads=0 / nr=0 / decimate=1 / interlaced=0 / bluray_compat=0 / constrained_intra=0 / bframes=3 / b_pyramid=2 / b_adapt=1 / b_bias=0 / direct=3 / weightb=1 / open_gop=0 / weightp=2 / keyint=250 / keyint_min=23 / scenecut=40 / intra_refresh=0 / rc_lookahead=50 / rc=2pass / mbtree=1 / bitrate=9737 / ratetol=1.0 / qcomp=0.60 / qpmin=0 / qpmax=69 / qpstep=4 / cplxblur=20.0 / qblur=0.5 / vbv_maxrate=62500 / vbv_bufsize=78125 / nal_hrd=none / filler=0 / ip_ratio=1.40 / aq=1:1.00
Default : Yes
Forced : No

Audio
ID : 2
Format : AC-3
Format/Info : Audio Coding 3
Mode extension : CM (complete main)
Format settings, Endianness : Big
Codec ID : A_AC3
Duration : 1h 45mn
Bit rate mode : Constant
Bit rate : 640 Kbps
Channel(s) : 2 channels
Channel positions : Front: L R
Sampling rate : 48.0 KHz

Frame rate : 31.250 fps (1536 spf)
Compression mode : Lossy
Stream size : 483 MiB (6%)
Language : Chinese
Default : Yes
Forced : No

Text
ID : 3
Format : UTF-8
Codec ID : S_TEXT/UTF8
Codec ID/Info : UTF-8 Plain Text
Language : English
Default : Yes
Forced : No


图片:血滴子 18529573413.jpg





The.Flying.Guillotine.1975.1080p.BluRay.x264-GHOULS.torrent
richardlf88
圣骑士
圣骑士
  • 注册日期2016-10-20
  • 发帖数136
  • 影币227枚
  • 魔力值681点
  • 蓝光币10克拉
  • 社区居民
  • 忠实会员
沙发#
发布于:2019-06-07 19:27
经典电影 谢谢楼主分享。。。
qq88u8
圣骑士
圣骑士
  • 注册日期2017-06-17
  • 发帖数104
  • 影币566枚
  • 魔力值624点
  • 蓝光币18克拉
  • 社区居民
  • 忠实会员
板凳#
发布于:2019-06-07 23:08
太感谢了,就喜欢老片子,谢谢
dszsdyx
精灵王
精灵王
  • 注册日期2016-09-22
  • 发帖数997
  • 影币5598枚
  • 魔力值2010点
  • 蓝光币574克拉
  • 社区居民
  • 忠实会员
地板#
发布于:2019-06-08 03:56
故事发生在清朝雍正年间,民间能人志士对雍正(江洋 饰)的暴政口诛笔伐,为了肃清这些反对的声音,雍正大兴文字狱,凡有忤逆者,皆满门抄斩。与此同时,雍正集结了一支护卫队,使用残酷的处刑器具血滴子,杀尽天下胆敢说出真话之人。
谢天富(汪禹 饰)是护卫队中的一员,很快,他便发现,自己所杀之人,竟然皆是正义勇敢的有志之士,遂对雍正的真正意图产生了怀疑,之后,谢天富死于非命。同僚的死让马腾(陈观秦 饰)看清了事件的真相,他决心金盆洗手,连夜潜逃出京。之后,马腾来到了地处偏远的深山村庄之中,隐姓埋名,并娶了玉贞(刘午琪 饰)为妻,就当他以为平静的生活即将继续之时,雍正派出的杀手已经步步逼近。
rickysen
精灵王
精灵王
  • 注册日期2017-10-31
  • 发帖数665
  • 影币524枚
  • 魔力值1021点
  • 蓝光币149克拉
  • 社区居民
  • 忠实会员
4楼#
发布于:2019-06-08 09:23
谢谢分享
冷月梦寒
精灵王
精灵王
  • 注册日期2017-12-18
  • 发帖数1420
  • 影币3650枚
  • 魔力值1063点
  • 蓝光币158克拉
  • 社区居民
  • 最爱沙发
  • 忠实会员
5楼#
发布于:2019-06-08 09:48
谢谢楼主分享
乐曲可乐
精灵王
精灵王
  • 注册日期2015-07-30
  • 发帖数118
  • 影币167枚
  • 魔力值921点
  • 蓝光币0克拉
  • 社区居民
  • 忠实会员
6楼#
发布于:2019-06-08 11:31
qq88u8:太感谢了,就喜欢老片子,谢谢回到原帖
怀旧派的吧
wsxht
骑士
骑士
  • 注册日期2019-04-09
  • 发帖数334
  • 影币332枚
  • 魔力值172点
  • 蓝光币47克拉
7楼#
发布于:2019-06-08 19:28
经典电影 谢谢楼主分享。。
音乐之声9
圣骑士
圣骑士
  • 注册日期2018-10-06
  • 发帖数124
  • 影币116枚
  • 魔力值580点
  • 蓝光币63克拉
  • 社区居民
  • 忠实会员
8楼#
发布于:2019-07-10 12:44
不错的老电影,谢谢分享。
wsxht
骑士
骑士
  • 注册日期2019-04-09
  • 发帖数334
  • 影币332枚
  • 魔力值172点
  • 蓝光币47克拉
9楼#
发布于:2019-08-12 19:33
谢谢楼主分享
游客
返回顶部