福利发放鸡
论坛版主
论坛版主
  • 注册日期2017-03-24
  • 发帖数523
  • 影币7486枚
  • 魔力值1548点
  • 蓝光币2克拉
  • 社区居民
  • 忠实会员
  • 喜欢达人
  • 原创写手
阅读:745回复:7

[其他]2019年中央广播电视总台“六一”晚会 快乐向未来.20190601.REPEAT.2160p.CCTV-4K.UHDTV.HEVC.10bit.HDR.DD5.1-FLTTH.ts 24.7G

楼主#
更多 发布于:2019-06-04 13:42

图片:SS_00001.jpg

图片:SS_00002.jpg

图片:SS_00003.jpg

图片:SS_00004.jpg

图片:SS_00005.jpg

图片:SS_00006.jpg



General
ID                                       : 36 (0x24)
Complete name                            : 快乐向未来.20190601.REPEAT.2160p.CCTV-4K.UHDTV.HEVC.10bit.HDR.DD5.1-FLTTH.ts
Format                                   : MPEG-TS
File size                                : 24.7 GiB
Duration                                 : 1 h 40 min
Overall bit rate mode                    : Variable
Overall bit rate                         : 35.3 Mb/s
         
Video
ID                                       : 7010 (0x1B62)
Menu ID                                  : 701 (0x2BD)
Format                                   : HEVC
Format/Info                              : High Efficiency Video Coding
Format profile                           : Main 10@L5@High
Codec ID                                 : 36
Duration                                 : 1 h 40 min
Bit rate                                 : 33.1 Mb/s
Width                                    : 3 840 pixels
Height                                   : 2 160 pixels
Display aspect ratio                     : 16:9
Frame rate                               : 50.000 FPS
Standard                                 : Component
Color space                              : YUV
Chroma subsampling                       : 4:2:0 (Type 0)
Bit depth                                : 10 bits
Bits/(Pixel*Frame)                       : 0.080
Stream size                              : 23.1 GiB (94%)
Color range                              : Limited
Color primaries                          : BT.2020
Transfer characteristics                 : HLG
Matrix coefficients                      : BT.2020 non-constant
         
Audio
ID                                       : 7011 (0x1B63)
Menu ID                                  : 701 (0x2BD)
Format                                   : AC-3
Format/Info                              : Audio Coding 3
Commercial name                          : Dolby Digital
Codec ID                                 : 129
Duration                                 : 1 h 40 min
Bit rate mode                            : Constant
Bit rate                                 : 448 kb/s
Channel(s)                               : 6 channels
Channel layout                           : L R C LFE Ls Rs
Sampling rate                            : 48.0 kHz
Frame rate                               : 31.250 FPS (1536 SPF)
Bit depth                                : 16 bits
Compression mode                         : Lossy
Delay relative to video                  : -569 ms
Stream size                              : 321 MiB (1%)
Service kind                             : Complete Main
节目简介:
    《2019年中央广播电视总台六一晚会》是中央广播电视总台制作的文艺晚会,由中央电视台少儿频道负责,晚会由许蓓蓓担任总导演。
    晚会于2019年6月1日晚在中央电视台综合频道、中央电视台少儿频道和4K超高清频道并机直播。
    晚会主题为《快乐向未来》,涵盖歌曲、舞蹈、动漫、故事讲述、戏曲、魔术、杂技、创意武术、钢琴与合唱、情景表演等多种形式,通过万花筒般多姿多彩的艺术表达,展现祖国的“花朵”们在新时代阳光下“快乐起舞,迎向未来”的朝气蓬勃和健康向上的精神风貌。
    今年是新中国成立70周年,也是中国少年先锋队建队70周年,中央广播电视总台2019年“六一”晚会《快乐向未来》打造了一系列兼具家国情怀、童真童趣的精彩节目,同时充分融入未来科技元素,利用4K、AI、虚拟等总台最新的技术成果,以全媒体阵容为新中国庆生,为少年儿童献上节日大礼。


下载地址:
https://pan.baidu.com/s/11uxYbnIGP6hli65Oi4COOg 提取码:umic
冷月梦寒
精灵王
精灵王
  • 注册日期2017-12-18
  • 发帖数1420
  • 影币3650枚
  • 魔力值1063点
  • 蓝光币158克拉
  • 社区居民
  • 最爱沙发
  • 忠实会员
沙发#
发布于:2019-06-04 19:36
谢谢楼主分享
Krystal
侠客
侠客
  • 注册日期2015-12-18
  • 发帖数17
  • 影币28枚
  • 魔力值100点
  • 蓝光币1克拉
  • 社区居民
板凳#
发布于:2019-06-05 08:49
谢谢分享六一晚会
306354194
圣骑士
圣骑士
  • 注册日期2016-05-19
  • 发帖数100
  • 影币88枚
  • 魔力值619点
  • 蓝光币0克拉
地板#
发布于:2019-06-07 20:50
醉了居然有大张.,,,
zyyzwyf
精灵王
精灵王
  • 注册日期2017-05-17
  • 发帖数1577
  • 影币2423枚
  • 魔力值781点
  • 蓝光币789克拉
  • 社区居民
  • 忠实会员
4楼#
发布于:2019-06-08 00:42
感谢楼主分享精彩视频
sjy960525
新手
新手
  • 注册日期2019-05-17
  • 发帖数4
  • 影币4枚
  • 魔力值27点
  • 蓝光币0克拉
5楼#
发布于:2019-06-08 09:39
谢谢分享六一晚会
1747699101
精灵王
精灵王
  • 注册日期2016-11-19
  • 发帖数1118
  • 影币1172枚
  • 魔力值1428点
  • 蓝光币798克拉
  • 社区居民
  • 忠实会员
6楼#
发布于:2019-06-11 12:58
来的有点晚了哈
zyyzwyf
精灵王
精灵王
  • 注册日期2017-05-17
  • 发帖数1577
  • 影币2423枚
  • 魔力值781点
  • 蓝光币789克拉
  • 社区居民
  • 忠实会员
7楼#
发布于:2019-06-18 10:28
感谢楼主分享
游客
返回顶部