福利发放鸡
论坛版主
论坛版主
  • 注册日期2017-03-24
  • 发帖数506
  • 影币7206枚
  • 魔力值1462点
  • 蓝光币2克拉
  • 社区居民
  • 忠实会员
  • 喜欢达人
  • 原创写手
阅读:635回复:5

[其他]相聚中国节·春天的思念.20190405.1080i.CCTV1.HDTV.H.264.DD5.1-FLTTH.ts 11.5G

楼主#
更多 发布于:2019-04-14 19:00

图片:SS_00007.jpg

图片:SS_00008.jpg

图片:SS_00009.jpg

图片:SS_00011.jpg

图片:SS_00010.jpg

图片:SS_00012.jpg



General
ID                                       : 1 (0x1)
Complete name                            : 相聚中国节·春天的思念.20190405.1080i.CCTV1.HDTV.H.264.DD5.1-FLTTH.ts
Format                                   : MPEG-TS
File size                                : 11.5 GiB
Duration                                 : 3 h 15 min
Overall bit rate mode                    : Variable
Overall bit rate                         : 8 414 kb/s
 
Video
ID                                       : 256 (0x100)
Menu ID                                  : 1 (0x1)
Format                                   : AVC
Format/Info                              : Advanced Video Codec
Format profile                           : High@L4
Format settings                          : CABAC / 2 Ref Frames
Format settings, CABAC                   : Yes
Format settings, RefFrames               : 2 frames
Format settings, GOP                     : M=3, N=12
Codec ID                                 : 27
Duration                                 : 3 h 15 min
Bit rate                                 : 7 546 kb/s
Width                                    : 1 920 pixels
Height                                   : 1 080 pixels
Display aspect ratio                     : 16:9
Frame rate                               : 25.000 FPS
Color space                              : YUV
Chroma subsampling                       : 4:2:0
Bit depth                                : 8 bits
Scan type                                : Interlaced
Scan type, store method                  : Separated fields
Scan order                               : Top Field First
Bits/(Pixel*Frame)                       : 0.146
Stream size                              : 10.3 GiB (90%)
 
Audio
ID                                       : 257 (0x101)
Menu ID                                  : 1 (0x1)
Format                                   : AC-3
Format/Info                              : Audio Coding 3
Commercial name                          : Dolby Digital
Codec ID                                 : 129
Duration                                 : 3 h 15 min
Bit rate mode                            : Constant
Bit rate                                 : 448 kb/s
Channel(s)                               : 6 channels
Channel layout                           : L R C LFE Ls Rs
Sampling rate                            : 48.0 kHz
Frame rate                               : 31.250 FPS (1536 SPF)
Bit depth                                : 16 bits
Compression mode                         : Lossy
Delay relative to video                  : -548 ms
Stream size                              : 627 MiB (5%)
Language                                 : English
Service kind                             : Complete Main
 
Menu
ID                                       : 4096 (0x1000)
Menu ID                                  : 1 (0x1)
Duration                                 : 3 h 15 min
List                                     : 256 (0x100) (AVC) / 257 (0x101) (AC-3, English)
Language                                 :  / English
Service name                             : CCTV1
Service provider                         : BGCTV
Service type                             : user defined
节目简介:
   4月5日,央视综合频道播出清明节主题节目《相聚中国节·春天的思念》。节目以演播室故事讲述、告白献礼仪式为核心,融合外景拍摄、文艺表演、实物展示等手段,展现真人、真事、真情,描绘中国人的精神图谱和家国情怀。节目突出缅怀主题,汇聚新中国成立70年来不同时期、不同领域代表人物的动人故事,串联起国家波澜壮阔的发展历程。同时,节目以“家”为底色,邀请逝去人物的亲朋回忆往昔岁月,以丰富感人的细节,表达思念崇敬之情。


下载地址:
https://pan.baidu.com/s/1c7HBvoUyfRFX7QxDKOMLlg 提取码:q3t8

最新喜欢:

zyyzwyfzyyzwy...
dszsdyx
精灵王
精灵王
  • 注册日期2016-09-22
  • 发帖数957
  • 影币5358枚
  • 魔力值1926点
  • 蓝光币570克拉
  • 社区居民
  • 忠实会员
沙发#
发布于:2019-04-15 05:25
   4月5日,央视综合频道播出清明节主题节目《相聚中国节·春天的思念》。节目以演播室故事讲述、告白献礼仪式为核心,融合外景拍摄、文艺表演、实物展示等手段,展现真人、真事、真情,描绘中国人的精神图谱和家国情怀。节目突出缅怀主题,汇聚新中国成立70年来不同时期、不同领域代表人物的动人故事,串联起国家波澜壮阔的发展历程。同时,节目以“家”为底色,邀请逝去人物的亲朋回忆往昔岁月,以丰富感人的细节,表达思念崇敬之情。
音乐之声9
骑士
骑士
  • 注册日期2018-10-06
  • 发帖数113
  • 影币105枚
  • 魔力值452点
  • 蓝光币63克拉
  • 社区居民
  • 忠实会员
板凳#
发布于:2019-04-15 08:33
谢谢分享。
wsxht
骑士
骑士
  • 注册日期2019-04-09
  • 发帖数308
  • 影币306枚
  • 魔力值122点
  • 蓝光币42克拉
地板#
发布于:2019-04-15 09:24
谢谢分享。
wsxht
骑士
骑士
  • 注册日期2019-04-09
  • 发帖数308
  • 影币306枚
  • 魔力值122点
  • 蓝光币42克拉
4楼#
发布于:2019-04-16 08:15
谢谢分享。
jszj5942
骑士
骑士
  • 注册日期2016-03-02
  • 发帖数56
  • 影币33枚
  • 魔力值271点
  • 蓝光币2克拉
  • 社区居民
  • 忠实会员
5楼#
发布于:2019-04-20 16:36
这个节目挺好的
游客
返回顶部